<?xml version="1.0" standalone="no"?>
<!DOCTYPE svg PUBLIC "-//W3C//DTD SVG 1.1//EN" "http://www.w3.org/Graphics/SVG/1.1/DTD/svg11.dtd" >
<svg xmlns="http://www.w3.org/2000/svg">
<metadata></metadata>
<defs>
<font id="HermesRegular" horiz-adv-x="1490" >
<font-face units-per-em="2048" ascent="1638" descent="-410" />
<missing-glyph horiz-adv-x="514" />
<glyph horiz-adv-x="0" />
<glyph horiz-adv-x="2048" />
<glyph unicode="&#xd;" horiz-adv-x="514" />
<glyph unicode=" "  horiz-adv-x="514" />
<glyph unicode="&#x09;" horiz-adv-x="514" />
<glyph unicode="&#xa0;" horiz-adv-x="514" />
<glyph unicode="!" horiz-adv-x="731" d="M146 42q1 13 1 30v182q0 36 7 48q15 22 67 22h295q47 0 63.5 -9.5t16.5 -66.5v-166q0 -47 -18.5 -64.5t-63.5 -17.5h-293q-56 0 -66 14.5t-9 27.5zM147 1389q-4 51 6.5 80.5t67.5 29.5h275q59 0 81.5 -23.5t18.5 -72.5l-49 -883q-4 -82 -62 -82h-194q-63 0 -77.5 18.5 t-16.5 53.5z" />
<glyph unicode="&#x22;" horiz-adv-x="1060" d="M98 1434q-4 39 9.5 52t39.5 13h259q70 0 61 -72l-61 -458q-4 -35 -21.5 -44.5t-52.5 -9.5h-94q-41 0 -56.5 13.5t-21.5 54.5zM590 1434q-4 39 9 52t40 13h258q70 0 61 -72l-61 -458q-4 -35 -21.5 -44.5t-52.5 -9.5h-94q-41 0 -56.5 13.5t-21.5 54.5z" />
<glyph unicode="#" horiz-adv-x="1476" d="M74 475l12 109q4 37 24.5 49t55.5 12h100l25 205h-117q-29 0 -39 15.5t-6 58.5l14 112q6 47 20.5 59.5t55.5 12.5h103l40 326q4 41 24 53t73 12h190q37 0 47.5 -18.5t5.5 -53.5l-40 -319h206l41 338q4 29 20.5 41t59.5 12h162q55 0 77.5 -13t18.5 -54l-39 -324h129 q41 0 52.5 -17.5t3.5 -70.5l-13 -109q-4 -37 -24.5 -49t-55.5 -12h-124l-25 -205h141q29 0 39 -15.5t4 -58.5l-8 -79q-8 -55 -24.5 -80t-57.5 -25h-127l-39 -321q-4 -41 -23.5 -53.5t-72.5 -12.5h-190q-37 0 -47.5 18.5t-6.5 53.5l39 315h-205l-41 -334q-4 -29 -20 -41 t-59 -12h-162q-55 0 -78 13.5t-18 54.5l38 319h-106q-41 0 -51 17.5t-2 70.5zM606 645h205l25 205h-205z" />
<glyph unicode="$" horiz-adv-x="1353" d="M117 258q8 182 41 182q20 0 52 -8t77 -17q120 -24 232 -24t159 15.5t47 50.5t-41 57.5t-104.5 49t-141.5 64.5t-146 95q-159 135 -159 344q0 172 94.5 275.5t249.5 146.5v160q0 41 25.5 53t79.5 12h338q47 0 54 -18.5t7 -53.5v-126q124 -12 188 -37q24 -8 20.5 -75 t-12 -113t-20.5 -85q-28 -92 -61 -88q-18 0 -54 8.5t-77 16.5q-113 22 -172 22q-138 0 -138 -71q0 -20 39 -42t103 -53t147.5 -74.5t155.5 -108.5q170 -157 170 -370q0 -315 -289 -423v-158q0 -29 -15.5 -41t-58.5 -12h-325q-55 0 -80 13t-25 54v98q-278 19 -348 82 q-20 20 -12 199z" />
<glyph unicode="%" horiz-adv-x="1665" d="M39 1004v262q0 153 124 212q71 33 189 33q121 0 180.5 -28.5t94.5 -74.5t35 -126v-289q0 -137 -77 -196.5t-225 -59.5q-221 0 -294 135q-27 52 -27 132zM289 1024q0 -31 15 -57.5t48 -26.5q66 0 66 80v182q0 100 -62 101q-45 0 -56 -31t-11 -72v-176zM344 68l645 1366 q16 35 33.5 50t71.5 15h188q78 0 43 -72l-647 -1374q-12 -27 -28.5 -40t-59.5 -13h-160q-55 0 -78.5 15.5t-7.5 52.5zM1006 250v262q0 153 124 212q71 34 189 34q120 0 180 -29t94.5 -75t34.5 -126v-288q0 -137 -76.5 -196.5t-224.5 -59.5q-221 0 -293 135q-28 51 -28 131z M1255 270q0 -31 15.5 -57.5t48.5 -26.5q65 0 65 80v183q0 49 -13 74.5t-53 25.5t-51.5 -31t-11.5 -72v-176z" />
<glyph unicode="&#x26;" horiz-adv-x="1243" d="M104 381q0 247 220 364q-154 61 -202 235q-18 62 -18 146q0 137 87.5 228.5t224.5 132.5v158q0 41 17.5 53t70.5 12h354q37 0 49.5 -18.5t12.5 -53.5v-137q66 -14 101.5 -30.5t54.5 -25.5t26.5 -39t5.5 -71t-10 -86t-21.5 -80.5t-29 -58.5t-44 -13.5t-98 21.5t-154.5 12 t-131.5 -27.5t-46.5 -68.5q0 -96 211 -102q88 -2 88 -55v-226q0 -29 -14 -42t-80.5 -13t-136.5 -29.5t-70 -93.5q0 -86 189 -86q102 0 197.5 22.5t106.5 27.5t25.5 -19.5t29 -65.5t25.5 -90t16 -94q12 -104 -19 -119q-69 -34 -221 -57v-133q0 -29 -15.5 -41.5t-58.5 -12.5 h-326q-55 0 -79.5 13.5t-24.5 54.5v127q-139 39 -225.5 131t-86.5 250z" />
<glyph unicode="'" horiz-adv-x="573" d="M109 1434q-4 39 9 52t40 13h258q70 0 61 -72l-61 -458q-4 -35 -21.5 -44.5t-52.5 -9.5h-94q-41 0 -56.5 13.5t-21.5 54.5z" />
<glyph unicode="(" horiz-adv-x="851" d="M141 682q0 408 161 726q46 91 97 151q33 40 223 -31q106 -40 140 -84q18 -23 2 -39q-71 -76 -142 -294q-77 -241 -77 -431q0 -180 75 -436q65 -227 140 -338q10 -14 -11.5 -32.5t-61.5 -36t-90 -32t-98 -22.5q-111 -19 -134 8q-85 95 -150 321q-74 258 -74 570z" />
<glyph unicode=")" horiz-adv-x="851" d="M104 -66q71 75 142 294q78 240 78 431q0 182 -75 437q-66 222 -140 338q-10 16 11 33.5t61 35t90.5 31.5t98.5 22q111 20 141 -14.5t70 -116.5t72.5 -197.5t53 -260t20.5 -299t-21.5 -286.5t-57.5 -246q-74 -234 -179 -355q-19 -26 -129 1q-104 25 -160.5 58t-74 54.5 t-1.5 39.5z" />
<glyph unicode="*" horiz-adv-x="909" d="M47 1126l55 172q14 45 62 25l192 -84l-20 213q-6 47 35 47h180q49 0 43 -51l-21 -209l197 86q43 19 53 -20l58 -172q12 -43 -35 -56l-207 -43l143 -162q20 -23 17.5 -35t-19.5 -22l-145 -108q-39 -23 -64 16l-106 182l-109 -184q-23 -45 -55 -16l-147 104q-35 29 -4 65 l139 160l-209 45q-48 7 -33 47z" />
<glyph unicode="+" horiz-adv-x="1136" d="M16 446v191q0 66 18.5 80t53.5 14h305v299q0 72 62 72h190q66 0 80 -18.5t14 -53.5v-299h285q51 0 65 -7q29 -14 29 -67v-188q0 -59 -27.5 -71.5t-66.5 -12.5h-285v-291q0 -51 -7 -65q-14 -29 -66 -29h-189q-76 0 -82 56q-2 18 -2 38v291h-305q-31 0 -51.5 15.5 t-20.5 45.5z" />
<glyph unicode="," horiz-adv-x="653" d="M41 -129l61 391q11 82 62 82h293q66 0 85 -18.5t9 -53.5l-37 -135q-20 -76 -47 -122t-88 -87l-238 -153q-49 -33 -80.5 -10.5t-19.5 106.5z" />
<glyph unicode="-" horiz-adv-x="1144" d="M119 569v170q0 66 18.5 80.5t52.5 14.5h736q80 0 100 -30q10 -16 10 -44v-152q0 -59 -17.5 -79.5t-78.5 -20.5h-739q-31 0 -56.5 15.5t-25.5 45.5z" />
<glyph unicode="." horiz-adv-x="653" d="M96 96v166q0 31 15.5 56.5t46.5 25.5h293q66 0 80 -18.5t14 -53.5v-161q0 -55 -7 -73q-16 -38 -67 -38h-274q-101 0 -101 96z" />
<glyph unicode="/" horiz-adv-x="761" d="M29 68l366 1366q10 41 30.5 53t74.5 12h188q37 0 45 -18.5t-2 -53.5l-369 -1374q-8 -29 -26.5 -41t-61.5 -12h-159q-55 0 -76 13.5t-10 54.5z" />
<glyph unicode="0" horiz-adv-x="1431" d="M92 506v522q0 216 125 339q138 135 399 149q64 4 110 4t110.5 -4.5t133 -19.5t135 -45t119.5 -80q115 -110 115 -308v-578q0 -274 -153.5 -394t-444.5 -120q-444 0 -593 271q-56 104 -56 264zM598 545q0 -61 30.5 -113.5t96.5 -52.5q125 0 125 160v364q0 98 -38 149.5 t-83 51.5t-69.5 -16.5t-39.5 -43.5q-22 -43 -22 -145v-354z" />
<glyph unicode="1" horiz-adv-x="1015" d="M70 1057v192q0 43 19.5 63.5t57.5 39.5l224 112q35 16 57.5 24.5t58.5 8.5h338q47 0 54.5 -18.5t7.5 -53.5v-1372q0 -29 -15.5 -41t-58.5 -12h-326q-55 0 -79.5 13.5t-24.5 54.5v835q0 45 -13.5 64.5t-60.5 19.5h-162q-36 0 -61 35q-10 14 -16 35z" />
<glyph unicode="2" horiz-adv-x="1304" d="M92 72v153q0 221 150 415q127 163 351 284q150 80 150 131q0 35 -43 54t-111.5 19t-156.5 -23.5t-168 -80.5q-31 -23 -70 74q-30 77 -40 158q-16 145 20 161q14 6 47 23.5t89 35.5q139 46 325 46q281 0 428 -94.5t147 -301.5q0 -210 -141 -354q-61 -63 -134 -106 t-136 -78t-103.5 -68t-40.5 -68t26 -43t58 -8h342q68 0 98.5 -11t30.5 -42v-289q0 -31 -13 -45t-30 -14h-1003q-20 0 -46 20.5t-26 51.5z" />
<glyph unicode="3" horiz-adv-x="1241" d="M109 76q-37 18 3 204q22 99 51 152q13 23 24 19t45 -15.5t77 -21.5q109 -27 180 -27q189 0 189 92q0 61 -77 91q-51 21 -123.5 24.5t-86.5 16t-14 40.5v201q0 29 29.5 40t58.5 15q211 19 211 127q0 41 -51.5 66.5t-136.5 25.5q-145 0 -255 -77q-12 -10 -24 11t-23.5 59 t-18.5 86t-10 92q-7 104 9 117t41.5 30.5t74.5 35.5q121 42 270 42t250 -22.5t177 -69.5q166 -101 166 -285q0 -263 -219 -400q105 -58 154 -132q65 -96 65 -218.5t-45 -200t-121 -126.5q-148 -97 -381 -97q-174 0 -338 47q-61 17 -99 34.5t-52 23.5z" />
<glyph unicode="4" horiz-adv-x="1351" d="M55 326v200q0 68 41 131l471 756q18 29 43 56.5t78 27.5h379q47 0 54 -18.5t7 -53.5v-802h111q29 0 41 -15.5t12 -58.5v-184q0 -55 -13 -80t-54 -25h-97v-207q0 -29 -15 -41t-58 -12h-224q-55 0 -79.5 13.5t-24.5 54.5v192h-602q-41 0 -55.5 14.5t-14.5 51.5zM504 623 h223v381z" />
<glyph unicode="5" horiz-adv-x="1277" d="M93 120q-3 36 0 82t12.5 96t25.5 90q35 89 88 67q108 -52 196.5 -70t130.5 -18t72.5 6t47.5 17q26 18 26 57t-19.5 60t-50 37.5t-65.5 30t-77.5 31t-97 38t-107.5 48.5q-128 66 -128 185v550q0 31 26 51.5t46 20.5h860q16 0 29.5 -14.5t13.5 -44.5v-289q0 -31 -30.5 -42 t-98.5 -11h-321q-84 0 -84 -45v-52q0 -26 143 -67q108 -30 199.5 -80.5t141.5 -105.5q112 -125 112 -336t-153.5 -326t-422.5 -115q-277 0 -450 77q-39 18 -50.5 27t-14.5 45z" />
<glyph unicode="6" horiz-adv-x="1411" d="M92 428v598q0 284 184 398q161 98 517 98q126 0 228.5 -23.5t131 -34t49.5 -17.5t36 -19q33 -25 26 -76l-33 -199q-14 -83 -101.5 -65t-161 33.5t-177 15.5t-170 -31t-66.5 -76v-22q0 -45 59 -45h295q205 0 314 -102q96 -90 96 -224v-297q0 -158 -119 -250 q-90 -70 -256 -100q-126 -24 -270 -19.5t-212.5 18t-135 42t-118.5 79.5q-116 112 -116 318zM602 457q0 -43 25.5 -56.5t97.5 -13.5q129 0 129 70v106q0 43 -30.5 60.5t-99.5 17.5t-95.5 -23.5t-26.5 -54.5v-106z" />
<glyph unicode="7" horiz-adv-x="1243" d="M96 1139v258q0 55 8 71q18 31 70 31h965q47 0 59 -19.5t2 -54.5l-440 -1339q-28 -86 -105 -86h-305q-55 0 -88 10t-16 58l303 911q29 90 -70 90h-305q-78 0 -78 70z" />
<glyph unicode="8" horiz-adv-x="1394" d="M86 381q0 172 96 287q25 30 51 49q-83 83 -123 233q-16 62 -16 148t39 165.5t113 136.5q155 122 418 122q303 0 475 -124q161 -115 161 -308q0 -240 -170 -373q116 -75 162 -231q17 -56 17 -144t-49.5 -164t-133.5 -122q-155 -85 -438 -85q-276 0 -437 106 q-165 109 -165 304zM563 494q0 -105 123 -105q129 0 129 100q0 119 -127 119q-72 0 -98.5 -30.5t-26.5 -83.5zM563 985q0 -35 33 -62.5t93 -27.5t93 29.5t33 70.5q0 119 -127 119q-108 0 -121 -72q-4 -22 -4 -57z" />
<glyph unicode="9" horiz-adv-x="1411" d="M92 854v301q0 158 119 250q91 70 256 101q101 18 193 18t156.5 -2t133 -15.5t135 -42t118.5 -78.5q116 -113 116 -319v-598q0 -283 -185 -399q-159 -99 -516 -99q-123 0 -237.5 24.5t-143 35t-49 17.5t-36.5 18q-32 25 -25 77l33 199q8 47 36.5 59.5t90 0.5t145.5 -28 t187.5 -16t170 31t66.5 76v22q0 45 -59 45h-295q-202 0 -314 101q-96 88 -96 221zM557 932q0 -43 30.5 -60.5t99.5 -17.5t95.5 18.5t26.5 38.5v127q0 43 -25.5 56.5t-97.5 13.5q-129 0 -129 -70v-106z" />
<glyph unicode=":" horiz-adv-x="653" d="M96 96v166q0 31 15.5 56.5t46.5 25.5h293q66 0 80 -18.5t14 -53.5v-161q0 -55 -7 -73q-16 -38 -67 -38h-274q-101 0 -101 96zM113 836v170q0 66 18.5 80t52.5 14h244q54 0 72 -8q39 -16 39 -66v-152q0 -59 -17.5 -79.5t-79.5 -20.5h-247q-31 0 -56.5 15.5t-25.5 46.5z " />
<glyph unicode=";" horiz-adv-x="653" d="M41 -129l61 391q11 82 62 82h293q66 0 85 -18.5t9 -53.5l-37 -135q-20 -76 -47 -122t-88 -87l-238 -153q-49 -33 -80.5 -10.5t-19.5 106.5zM102 854v166q0 31 15.5 56.5t46.5 25.5h293q66 0 80 -18.5t14 -53.5v-162q0 -54 -7 -72q-15 -38 -67 -38h-274q-101 0 -101 96z " />
<glyph unicode="&#x3c;" horiz-adv-x="1136" d="M109 449v190q0 59 19 78.5t52 34.5l752 307q94 42 94 -49v-189q0 -59 -27.5 -77.5t-66.5 -30.5l-457 -150l457 -145q39 -12 66.5 -31.5t27.5 -77.5v-188q0 -96 -94 -49l-731 290q-92 36 -92 87z" />
<glyph unicode="=" horiz-adv-x="1136" d="M68 221v129q0 66 18 80t53 14h854q52 0 66 -7q28 -14 28 -66v-127q0 -59 -27.5 -71.5t-66.5 -12.5h-854q-71 0 -71 61zM68 637v127q0 57 26.5 70.5t67.5 13.5h854q71 0 71 -62v-129q0 -66 -18 -80t-53 -14h-854q-52 0 -66 7q-28 16 -28 67z" />
<glyph unicode="&#x3e;" horiz-adv-x="1136" d="M127 121v188q0 57 26.5 77t67.5 32l457 145l-457 150q-49 15 -65 29q-29 27 -29 79v189q0 91 94 49l752 -307q33 -14 52 -34t19 -79v-190q0 -33 -30.5 -53.5t-61.5 -33.5l-731 -290q-94 -42 -94 49z" />
<glyph unicode="?" horiz-adv-x="970" d="M27 1319q4 59 24 74.5t51 36t82 40.5q130 52 279 52q221 0 344 -80t123 -234q0 -109 -39 -183.5t-87 -135t-87 -113.5t-39 -117v-122q0 -39 -31 -62.5t-69 -23.5h-256q-84 0 -80 63v66q0 66 12 126t50 111t77 92t68.5 82t29.5 89.5t-20.5 72t-68.5 23.5t-86 -10.5 t-72 -25.5q-77 -35 -109 -61q-27 -18 -51.5 21t-36.5 99.5t-8 119.5zM225 96v146q0 31 15.5 56.5t46.5 25.5h313q74 0 74 -72v-141q0 -55 -8 -73q-15 -38 -66 -38h-274q-101 0 -101 96z" />
<glyph unicode="@" horiz-adv-x="1613" d="M76 682q0 160 55 301t153.5 245.5t233.5 165t295 60.5t295 -56.5t232 -157.5q204 -214 204 -558q0 -311 -214 -382q-66 -21 -166.5 -21t-170 19t-116.5 73q-67 -97 -250 -97q-158 0 -215 214q-19 75 -19 188t19.5 193.5t53.5 130.5q64 92 170.5 92t158 -21.5t82.5 -73.5 v11q0 57 43 57h204q47 0 56.5 -13.5t9.5 -37.5v-465q0 -29 15.5 -55.5t41.5 -26.5t44 8t31 31q30 55 30 175t-39 226.5t-111 184.5q-158 170 -389 170q-230 0 -379 -170q-139 -161 -139 -410t139 -410q149 -170 379 -170q143 0 369 86q12 4 30.5 -20.5t33.5 -57.5 q39 -93 11 -104q-76 -37 -196.5 -66.5t-272 -29.5t-289 57.5t-231.5 159.5q-192 208 -192 555zM731 586q0 -68 29 -98q12 -13 31 -13q51 0 51 111v207q0 67 -25 87q-12 9 -33 9q-48 0 -52 -65q-1 -17 -1 -31v-207z" />
<glyph unicode="A" horiz-adv-x="1501" d="M29 68l415 1366q10 37 31 51t74 14h403q53 0 72.5 -14.5t32.5 -50.5l416 -1366q6 -20 6 -33q1 -19 -13 -25q-24 -10 -80 -10h-344q-43 0 -53 11.5t-20 41.5l-56 185h-421l-56 -185q-10 -31 -21.5 -42t-52.5 -11h-292q-47 0 -47 37q0 13 6 31zM578 522h247l-125 412z" />
<glyph unicode="B" horiz-adv-x="1480" d="M129 53v1374q0 35 7 53.5t54 18.5h613q299 0 436 -99.5t137 -279.5q0 -262 -180 -368q27 -16 62.5 -40t67.5 -66q75 -98 75 -267q0 -379 -510 -379h-688q-43 0 -58.5 12.5t-15.5 40.5zM596 973q0 -23 8 -31t33 -8h113q93 0 126 60q13 26 13 71q0 78 -44 99.5t-104 21.5 h-108q-37 0 -37 -37v-176zM600 352q0 -37 37 -37h108q168 0 168 121q0 131 -159 131h-113q-25 0 -33 -8t-8 -31v-176z" />
<glyph unicode="C" horiz-adv-x="1345" d="M113 498v450q0 261 151 403q182 171 596 171q259 0 362 -54q25 -14 33 -22q6 -6 6 -22q0 -6 -1 -13q-3 -27 -11 -63.5t-20 -78.5t-25 -77q-30 -76 -45 -76h-2q-18 4 -38.5 9t-48.5 9q-60 7 -132 7t-122 -5.5t-92 -29.5q-97 -54 -97 -207v-324q0 -124 26.5 -164 t64.5 -55.5t137 -15.5t176 22.5t114 32.5h2q25 0 69 -161q34 -119 34 -162q0 -16 -5 -21q-44 -44 -291 -69q-82 -9 -223 -9t-266 42t-204 114q-148 135 -148 369z" />
<glyph unicode="D" horiz-adv-x="1488" d="M129 74v1327q0 98 68 98h512q292 0 453 -95q214 -126 214 -415v-524q0 -179 -97 -297q-73 -89 -199 -136q-88 -32 -160 -32h-703q-25 0 -56.5 19.5t-31.5 54.5zM618 446q0 -12 13.5 -34.5t60.5 -22.5h35q66 0 109 65q34 54 34 140v356q0 63 -28 99q-54 67 -127 67h-29 q-47 0 -57.5 -9t-10.5 -42v-619z" />
<glyph unicode="E" horiz-adv-x="1271" d="M129 72v1360q0 29 7 48t48 19h901q37 0 46.5 -16.5t9.5 -38.5v-254q0 -37 -25.5 -46t-68.5 -9h-388q-53 0 -53 -33v-96q0 -25 14.5 -36.5t30.5 -11.5h350q43 0 55.5 -17t10.5 -38l-18 -250q-3 -45 -45 -61q-15 -6 -32 -6h-304q-25 0 -41.5 -12.5t-16.5 -34.5v-113 q0 -35 26 -40t58 -5h363q68 0 98.5 -11.5t30.5 -41.5v-269q0 -31 -13.5 -45t-29.5 -14h-942q-20 0 -46 15.5t-26 56.5z" />
<glyph unicode="F" horiz-adv-x="1216" d="M129 72v1360q0 29 7 48t48 19h901q37 0 46.5 -16.5t9.5 -38.5v-232q0 -49 -20.5 -63t-73.5 -14h-388q-53 0 -53 -33v-135q0 -25 14.5 -36t30.5 -11h328q43 0 56.5 -17.5t8.5 -38.5l-10 -250q-6 -46 -46 -61q-15 -6 -30 -6h-290q-25 0 -41.5 -14.5t-16.5 -36.5v-437 q0 -31 -13 -45t-30 -14h-366q-20 0 -46 15.5t-26 56.5z" />
<glyph unicode="G" horiz-adv-x="1462" d="M113 498v450q0 261 151 403q182 171 596 171q319 0 397 -78q5 -5 5 -20q0 -40 -33 -155q-25 -88 -44.5 -121.5t-32.5 -30.5t-33.5 8t-48.5 9q-60 7 -132 7t-122 -5.5t-92 -29.5q-97 -54 -97 -207v-340q0 -115 26.5 -175t108.5 -60q96 0 109 64q3 15 3 26v123 q0 16 -5 28.5t-33 14.5l-72 2q-23 0 -32 7t-9 42v211q0 16 3 32.5t26 16.5h505q61 0 77 -15.5t16 -68.5v-354q0 -84 -18.5 -169t-79.5 -155q-138 -156 -480 -156q-340 0 -511 156q-148 135 -148 369z" />
<glyph unicode="H" horiz-adv-x="1587" d="M129 72v1374q0 29 15.5 41t58.5 12h325q55 0 80 -13t25 -54v-431q0 -25 11 -31.5t36 -6.5h240q35 0 34 34v449q0 53 88 53h338q53 0 65.5 -13t12.5 -54v-1366q0 -41 -14 -53.5t-68 -12.5h-338q-84 0 -84 72v477q0 23 -7 32t-32 9h-249q-18 0 -25.5 -5t-7.5 -30v-489 q0 -41 -25.5 -53.5t-79.5 -12.5h-338q-41 0 -51 18.5t-10 53.5z" />
<glyph unicode="I" horiz-adv-x="761" d="M129 68v1366q0 41 17.5 53t70.5 12h354q37 0 49.5 -18.5t12.5 -53.5v-1374q0 -29 -15.5 -41t-58.5 -12h-326q-55 0 -79.5 13.5t-24.5 54.5z" />
<glyph unicode="J" horiz-adv-x="917" d="M69 337q5 28 44 38q41 17 92 47q51 35 65.5 72.5t14.5 99.5v852q0 29 15 41t58 12h326q53 0 78.5 -13t25.5 -54v-967q0 -228 -78 -334q-42 -57 -106.5 -100t-125.5 -73q-85 -41 -143.5 -54.5t-92.5 -21.5q-14 -4 -25 -4q-15 0 -25 6q-16 12 -26 53l-88 319q-10 39 -10 65 q0 9 1 16z" />
<glyph unicode="K" horiz-adv-x="1650" d="M129 68v1366q0 41 25.5 53t78.5 12h338q47 0 54.5 -18.5t7.5 -53.5v-360q356 367 381.5 392.5t35.5 31.5q12 8 44 8h379q65 0 79 -7q12 -6 12 -17q0 -17 -30 -48l-508 -518l590 -837q19 -26 19 -43q0 -23 -37 -27q-19 -2 -44 -2h-378q-35 0 -52.5 7t-42.5 42 q-104 150 -162.5 233.5t-92 132t-62.5 90.5t-57 81l-74 -78v-455q0 -29 -15.5 -41t-58.5 -12h-326q-55 0 -79.5 13.5t-24.5 54.5z" />
<glyph unicode="L" horiz-adv-x="1153" d="M129 72v1374q0 29 15.5 41t58.5 12h325q55 0 80 -13t25 -54v-1031q0 -25 11 -32t36 -7h354q43 0 50.5 -15t7.5 -38v-254q0 -37 -26 -46t-69 -9h-807q-47 0 -54 18.5t-7 53.5z" />
<glyph unicode="M" horiz-adv-x="1806" d="M129 68v1366q0 41 25.5 53t78.5 12h277q29 0 54.5 -2t45.5 -37l287 -499q14 -25 29 -3l270 498q24 43 107 43h313q47 0 54 -18.5t7 -53.5v-1374q0 -29 -15 -41t-58 -12h-326q-55 0 -79.5 13.5t-24.5 54.5v639q0 14 -12.5 10t-16.5 -8l-170 -369q-16 -37 -23.5 -46 t-38.5 -9h-22q-41 0 -48 7t-11.5 18.5t-12.5 31.5l-153 356q-4 8 -18.5 5t-14.5 -9v-641q0 -27 -10.5 -40t-63.5 -13h-357q-73 0 -73 68z" />
<glyph unicode="N" horiz-adv-x="1572" d="M129 59v1375q0 36 18.5 50.5t38.5 14.5h275q68 0 84 -23q6 -8 16 -20l375 -584q14 -23 28.5 -17.5t14.5 48.5v531q1 23 17 46q14 20 37 20q4 0 9 -1h330q35 0 48.5 -16.5t13.5 -50.5v-1360q0 -40 -8 -64q-8 -22 -44 -22h-6l-270 8q-41 2 -62.5 14t-39.5 41l-369 557 q-22 36 -33 36q-12 0 -12 -38v-532q0 -47 -15.5 -59.5t-74.5 -12.5h-236t-98 5q-37 13 -37 54z" />
<glyph unicode="O" horiz-adv-x="1472" d="M113 430v578q0 407 363 488q116 26 259 26q304 0 455 -114q170 -129 170 -421v-522q0 -224 -125 -351q-130 -131 -401 -139q-64 -2 -110 -2t-109.5 2t-132 15.5t-135 42t-119.5 79.5q-115 111 -115 318zM602 549q0 -84 38 -122t85 -38q84 0 106.5 44t22.5 120v405 q0 72 -27.5 114t-100.5 42t-98.5 -44t-25.5 -109v-412z" />
<glyph unicode="P" horiz-adv-x="1509" d="M129 72v1374q0 29 15.5 41t58.5 12h626q327 0 469 -134q144 -135 144 -422q0 -142 -42 -238.5t-130 -156.5q-168 -116 -545 -116h-43q-29 0 -39 -11t-10 -44v-311q0 -41 -25.5 -53.5t-79.5 -12.5h-338q-47 0 -54 18.5t-7 53.5zM641 860q0 -23 8 -31t33 -8h113q52 0 82 27 q57 50 57 129.5t-44 116t-104 36.5h-108q-37 0 -37 -36v-234z" />
<glyph unicode="Q" horiz-adv-x="1472" d="M113 430v578q0 274 145 394t436 120q450 0 606 -272q60 -103 60 -263v-522q0 -212 -109 -334q26 -44 146 -96q39 -10 45 -38q2 -8 2 -17q0 -25 -12 -64l-89 -258q-14 -41 -29 -52q-8 -7 -20 -7q-10 0 -22 4q-148 57 -314 199q-81 69 -153 171h-78q-156 0 -234.5 15.5 t-145 44t-119.5 79.5q-115 111 -115 318zM602 590q0 -98 28.5 -149.5t83 -51.5t79 16.5t39.5 44.5q22 42 22 144v354q0 166 -126 166t-126 -160v-364z" />
<glyph unicode="R" horiz-adv-x="1546" d="M129 72v1374q0 29 15.5 41t58.5 12h626q292 0 458 -149q77 -70 116 -161.5t39 -181.5t-22.5 -150t-56.5 -105q-58 -76 -136 -121q-23 -12 -24 -15.5t7 -21.5l217 -522q12 -25 12 -41q0 -17 -13 -25q-11 -6 -35 -6h-392q-64 0 -77 36q-4 11 -11 25l-178 410q-6 12 -11 14 t-17 2h-56q-16 0 -16 -28v-393q0 -41 -18.5 -53.5t-86.5 -12.5h-338q-47 0 -54 18.5t-7 53.5zM641 915q0 -23 8 -30.5t33 -7.5h141q45 0 79 32.5t34 90t-37 95.5t-113 38h-108q-37 0 -37 -37v-181z" />
<glyph unicode="S" horiz-adv-x="1368" d="M125 256q8 182 41 182q20 0 52 -8t77 -18q111 -23 227.5 -23t163.5 15.5t47 50.5t-41 57.5t-104.5 49t-141 64.5t-145.5 95q-160 134 -160 344q0 230 179 348q165 109 446 109q284 0 412 -45q18 -6 18 -55q0 -10 -1 -24q-5 -72 -14.5 -121.5t-22.5 -89.5t-29.5 -65.5 t-40 -20.5t-62.5 13t-81 16q-98 17 -144 17q-137 0 -137 -55q0 -20 38.5 -42t102.5 -53t147.5 -74.5t155.5 -108.5q170 -155 170 -370q0 -473 -641 -473q-213 0 -339 27t-161 59q-14 14 -14 110q0 38 2 89z" />
<glyph unicode="T" horiz-adv-x="1353" d="M29 1190v254q0 37 25.5 46t68.5 9h1100q43 0 68.5 -9t25.5 -46v-254q0 -23 -7 -38t-50 -15h-299q-25 0 -36.5 -7.5t-11.5 -31.5v-1030q0 -41 -24.5 -54.5t-79.5 -13.5h-295q-61 0 -82.5 11.5t-21.5 56.5v1030q0 25 -11.5 32t-36.5 7h-276q-43 0 -50 15t-7 38z" />
<glyph unicode="U" horiz-adv-x="1478" d="M117 430v1016q0 29 15 41t58 12h312q55 0 79.5 -13t24.5 -54v-842q0 -98 38 -149.5t83 -51.5t69.5 16.5t39.5 44.5q22 42 22 144v852q0 29 15.5 41t58.5 12h325q53 0 80 -13t27 -54v-967q0 -224 -125 -351q-130 -131 -401 -139q-64 -2 -110 -2t-109.5 2t-132 15.5 t-135 42t-119.5 79.5q-115 111 -115 318z" />
<glyph unicode="V" horiz-adv-x="1505" d="M16 1432q-4 13 -4 24q0 40 58 42q22 1 51 1h325q43 0 53.5 -11t20.5 -42l268 -881l265 881q10 31 20 42t53 11h230q55 0 87 -9q22 -6 22 -31q0 -12 -5 -27l-416 -1364q-10 -37 -30.5 -51.5t-73.5 -14.5h-403q-53 0 -74 14.5t-31 51.5z" />
<glyph unicode="W" horiz-adv-x="2252" d="M35 1432q-4 14 -4 24q0 39 57 42q23 1 51 1h326q43 0 53 -11t21 -42l268 -881l123 408l-139 459q-4 14 -4 24q0 39 57 42q22 1 51 1h326q43 0 53 -11t20 -42l269 -883l264 881q10 31 20.5 42t53.5 11h229q55 0 87 -9q22 -6 22 -31q0 -12 -5 -27l-415 -1364 q-10 -37 -31 -51.5t-74 -14.5h-383q-53 0 -73.5 14.5t-30.5 51.5l-111 366l-115 -364q-10 -39 -30.5 -52.5t-73.5 -13.5h-342q-53 0 -73.5 14.5t-30.5 51.5z" />
<glyph unicode="X" horiz-adv-x="1597" d="M22 14q-7 6 -7 16q0 15 18 38l475 669l-485 690q-17 26 -17 42q0 30 57 30h355q53 0 89 -13t64 -52l242 -340l240 340q27 39 54.5 52t98.5 13h281q55 0 55 -29q0 -17 -18 -43l-455 -647l506 -712q18 -24 18 -38q1 -10 -7 -16q-18 -14 -75 -14h-378q-43 0 -64.5 12.5 t-42.5 40.5l-260 371q-23 -33 -41 -58q-90 -128 -221 -313q-20 -29 -42 -41t-65 -12h-301q-56 0 -74 14z" />
<glyph unicode="Y" horiz-adv-x="1531" d="M8 1490q13 9 72 9h379q49 0 62 -10q16 -11 42 -55l273 -437q23 47 63.5 113t65.5 107l131 217q26 44 37 51q18 14 67 14h246q58 0 69 -7q10 -6 10 -19q0 -16 -77 -147q-76 -128 -150.5 -255t-116.5 -200.5t-76 -130t-53 -91.5l-20 -35v-546q0 -41 -24.5 -54.5 t-79.5 -13.5h-326q-43 0 -58.5 12.5t-15.5 40.5v565l-510 809q-18 30 -18 46q0 11 8 17z" />
<glyph unicode="Z" horiz-adv-x="1402" d="M68 1190l12 254q2 23 10 39t45 16h1088q25 0 51 -12t26 -39v-127q0 -43 -26 -88l-535 -866h496q43 0 68.5 -9.5t25.5 -46.5v-256q0 -23 -9 -39t-46 -16h-1135q-51 0 -51 51v127q0 42 43 109l520 848h-489q-43 0 -71 9q-24 8 -24 35q0 5 1 11z" />
<glyph unicode="[" horiz-adv-x="851" d="M106 -137v1630q0 41 17.5 53.5t71.5 12.5h518q37 0 49 -18.5t12 -53.5v-184q0 -27 -17.5 -46.5t-43.5 -19.5h-109q-53 0 -53 -51v-1010q0 -23 15.5 -36t37.5 -13h119q51 0 51 -59v-220q0 -29 -15.5 -41t-58.5 -12h-489q-55 0 -80 13.5t-25 54.5z" />
<glyph unicode="\" horiz-adv-x="761" d="M37 1480.5q8 18.5 45 18.5h188q53 0 74 -12t31 -53l366 -1366q10 -41 -10 -54.5t-76 -13.5h-159q-43 0 -61.5 12.5t-26.5 40.5l-369 1374q-10 35 -2 53.5z" />
<glyph unicode="]" horiz-adv-x="851" d="M88 68q0 59 51 59h119q23 0 38 13.5t15 35.5v1010q0 51 -53 51h-108q-27 0 -44.5 19.5t-17.5 46.5v184q0 35 12.5 53.5t49.5 18.5h518q53 0 70.5 -12.5t17.5 -53.5v-1630q0 -41 -24.5 -54.5t-80.5 -13.5h-489q-43 0 -58.5 12.5t-15.5 40.5v220z" />
<glyph unicode="^" horiz-adv-x="1136" d="M68 620q-8 21 12 66l291 731q12 31 32.5 61.5t53.5 30.5h190q59 0 78.5 -19.5t34.5 -51.5l307 -752q42 -94 -49 -94h-189q-52 0 -70 20q-23 25 -38 74l-150 457l-145 -457q-12 -41 -31.5 -67.5t-77.5 -26.5h-188q-51 0 -61 28z" />
<glyph unicode="_" horiz-adv-x="1144" d="M18 -133q0 66 18.5 80t53.5 14h940q55 0 72 -7q39 -15 39 -67v-151q0 -59 -17.5 -80t-79.5 -21h-944q-31 0 -56.5 15.5t-25.5 46.5v170z" />
<glyph unicode="`" horiz-adv-x="1024" d="M189.5 1558.5q7.5 22.5 58.5 22.5h266q27 0 43 -14.5t33 -38.5l166 -238q20 -29 12 -48t-49 -19h-152q-33 0 -55.5 19.5t-38.5 33.5l-262 233q-29 27 -21.5 49.5z" />
<glyph unicode="a" horiz-adv-x="1308" d="M72 539q0 472 223 571q70 31 147 31t124.5 -9.5t82.5 -27.5q57 -30 113 -98v14q0 31 15.5 56.5t45.5 25.5h310q51 0 64 -18.5t13 -53.5v-919q0 -55 -7 -73q-15 -38 -66 -38h-275q-41 0 -70.5 10t-29.5 51v50q-119 -140 -356 -140q-143 0 -233 131q-101 149 -101 437z M555 418q0 -158 84 -158q69 0 73 110q1 27 1 48v295q0 64 -9 87q-21 50 -73 50q-71 0 -75 -92q-1 -25 -1 -45v-295z" />
<glyph unicode="b" horiz-adv-x="1308" d="M98 111v1339q0 35 14.5 53.5t80.5 18.5h292q31 0 46.5 -26t15.5 -56v-434q45 72 118.5 103.5t181.5 31.5t173 -31t114 -102q103 -150 103 -469q0 -288 -101 -437q-90 -131 -233 -131q-261 0 -356 140v-56q0 -41 -31 -48t-70 -7h-274q-69 0 -73 70q-1 20 -1 41zM596 418 q0 -107 30 -142q15 -16 44 -16q84 0 84 158v295q0 64 -8 87q-19 50 -59 50t-56.5 -13.5t-24.5 -34.5q-10 -25 -10 -89v-295z" />
<glyph unicode="c" horiz-adv-x="1171" d="M72 539q0 333 134 469q131 133 449 133q164 0 270.5 -43t172.5 -146q3 -5 3 -12q0 -29 -65 -84q-67 -56 -134 -89q-90 -46 -116 -46q-9 0 -10 6q-14 47 -38.5 85t-86.5 38q-84 0 -84 -137v-295q0 -98 47 -142q17 -16 44.5 -16t47 14.5t34.5 37.5q18 29 36 102q6 24 56 24 q21 0 49 -4q93 -14 153 -41.5t84 -48.5q20 -18 20 -34q0 -3 -1 -5q-79 -334 -486 -334q-318 0 -451 131q-128 126 -128 437z" />
<glyph unicode="d" horiz-adv-x="1308" d="M72 539q0 469 216 571q66 31 139 31t123 -8.5t88 -25.5q55 -24 124 -101v434q0 31 15.5 56.5t45.5 25.5h293q66 0 80 -18.5t14 -53.5v-1339q0 -55 -7 -73q-15 -38 -66 -38h-244.5t-100.5 5q-30 11 -30 56v50q-49 -57 -131 -98.5t-225 -41.5t-233 131q-101 149 -101 437z M555 418q0 -158 84 -158q69 0 73 110q1 27 1 48v295q0 64 -9 87q-21 50 -73 50q-71 0 -75 -92q-1 -25 -1 -45v-295z" />
<glyph unicode="e" horiz-adv-x="1271" d="M72 543q0 312 134 455q136 143 449 143q274 0 415 -121q126 -107 126 -289v-188q0 -66 -16 -81q-27 -28 -113 -28h-567q0 -51 70.5 -94t199.5 -43q155 0 248.5 11t105.5 11h9q53 0 53 -45v-194q0 -41 -14.5 -62.5t-40 -25.5t-73.5 -8t-110 -8q-166 -9 -235 -9 q-358 0 -515 173q-126 140 -126 403zM537 762.5q0 -31.5 2 -48t24 -16.5h150q16 0 19 14.5t3 37.5q0 120 -94 120q-61 0 -87 -46q-17 -30 -17 -61.5z" />
<glyph unicode="f" horiz-adv-x="876" d="M59 852v133q0 39 11.5 61.5t50.5 22.5h65q-11 14 -18 61q-7 42 -7 83v11q1 46 20.5 98t62.5 97q98 103 286 103q102 0 172 -16.5t80 -21.5t8 -51.5t-9 -99.5q-18 -139 -38 -139l-55 2q-27 0 -47 -10t-20 -42t17 -50.5t40 -18.5h84q41 0 48 -21.5t7 -64.5v-117 q0 -100 -65 -100h-88v-655q0 -43 -18.5 -80t-61.5 -37h-273q-39 0 -69.5 23.5t-30.5 62.5v686h-76q-43 0 -59.5 18.5t-16.5 61.5z" />
<glyph unicode="g" horiz-adv-x="1306" d="M72 573q0 568 372 568q223 0 318 -140q0 76 26 93q13 8 32 8h315q68 0 72 -70q1 -20 1 -41v-860q0 -498 -323 -553q-94 -16 -195 -16q-249 0 -358 22q-57 12 -72.5 12.5t-23.5 4.5q-15 8 -15 67v199q0 37 35 43q14 2 29 2q24 0 50 -5q186 -38 298 -38q51 0 92 37 q39 35 39 96v6l-2 98q-45 -72 -121 -103.5t-197 -31.5q-372 0 -372 602zM555 399q0 -63 8 -87q17 -50 68 -50q52 0 71 48q11 25 11 89v295q0 106 -32 142q-15 16 -42 16q-84 0 -84 -158v-295z" />
<glyph unicode="h" horiz-adv-x="1263" d="M98 96v1321q0 31 15.5 56.5t46.5 25.5h325q39 0 51.5 -13t12.5 -48v-432q63 55 127.5 87.5t146.5 32.5t137.5 -18t101.5 -59q103 -92 103 -275v-657q0 -43 -11 -80t-54 -37h-305q-39 0 -60.5 23.5t-21.5 62.5v530q0 103 -80 103q-49 0 -67.5 -32t-18.5 -66v-525 q0 -41 -11.5 -68.5t-50.5 -27.5h-311q-49 0 -62.5 27.5t-13.5 68.5z" />
<glyph unicode="i" horiz-adv-x="645" d="M98 94v936q0 72 62 72h293q66 0 80 -18.5t14 -53.5v-936q0 -51 -7 -66q-15 -28 -67 -28h-291q-76 0 -82 56q-2 18 -2 38zM98 1292v138q0 47 18.5 58t63.5 11h293q69 0 73 -63q1 -17 1 -33v-117q0 -33 -15.5 -51t-58.5 -18h-295q-47 0 -63.5 13t-16.5 62z" />
<glyph unicode="j" horiz-adv-x="690" d="M-59 -332q0 45 6 98q16 142 45 142h59q27 0 46.5 9t19.5 44v1040q0 101 80 101h295q39 0 69.5 -23.5t30.5 -62.5v-1139q0 -111 -81 -194q-101 -103 -300 -103q-91 0 -169.5 16.5t-89.5 21.5t-11 50zM129 1292v125q0 47 18.5 64.5t63.5 17.5h274q58 0 67 -15q8 -13 8 -24 l-1 -33v-141q0 -38 -7 -48q-14 -21 -67 -21h-276q-52 0 -63 8q-17 12 -17 67z" />
<glyph unicode="k" horiz-adv-x="1292" d="M98 96v1354q0 72 62 72h293q66 0 80 -18.5t14 -53.5v-653l149 245q36 60 97 60h362q66 0 70 -19.5t-19 -52.5l-315 -457l362 -501q18 -31 18 -49q0 -23 -69 -23h-362q-57 0 -111 82l-182 272v-243q0 -55 -7 -73q-16 -38 -67 -38h-274q-101 0 -101 96z" />
<glyph unicode="l" horiz-adv-x="645" d="M98 72v1392q0 23 15.5 40.5t46.5 17.5h293q66 0 80 -18.5t14 -53.5v-1356q0 -51 -7 -66q-15 -28 -67 -28h-295q-53 0 -66.5 12.5t-13.5 59.5z" />
<glyph unicode="m" horiz-adv-x="1878" d="M98 96v924q0 31 15.5 56.5t46.5 25.5h293q45 0 62 -12q34 -23 34 -84q66 55 132.5 87.5t155.5 32.5q202 0 287 -168q80 93 132 120q91 48 206 48q210 0 289 -186q29 -68 29 -166v-657q0 -43 -18.5 -80t-61.5 -37h-273q-66 0 -83 23.5t-17 62.5v530q0 103 -80 103 q-41 0 -60.5 -22.5t-23.5 -51.5v-528q0 -43 -18.5 -80t-61.5 -37h-284q-39 0 -62.5 23.5t-23.5 62.5v530q0 103 -80 103q-49 0 -67.5 -32t-18.5 -66v-510q0 -55 -7 -73q-16 -38 -67 -38h-274q-101 0 -101 96z" />
<glyph unicode="n" horiz-adv-x="1263" d="M98 96v924q0 31 15.5 56.5t46.5 25.5h293q45 0 62 -12q34 -23 34 -84q59 55 129 87.5t147.5 32.5t135 -18t102.5 -59q102 -93 102 -275v-657q0 -43 -18.5 -80t-61.5 -37h-272q-39 0 -69.5 23.5t-30.5 62.5v530q0 103 -80 103q-49 0 -67.5 -32t-18.5 -66v-510 q0 -55 -7 -73q-16 -38 -67 -38h-274q-101 0 -101 96z" />
<glyph unicode="o" horiz-adv-x="1275" d="M72 539q0 333 134 469q131 133 449 133q284 0 414 -135q135 -139 135 -454q0 -154 -30.5 -260t-97.5 -178q-133 -143 -425 -143q-318 0 -451 131q-128 126 -128 437zM555 389q0 -55 16.5 -92t67.5 -37t66.5 40t15.5 91v322q0 93 -38 123q-17 14 -47 14t-46.5 -13.5 t-23.5 -34.5q-11 -32 -11 -89v-324z" />
<glyph unicode="p" horiz-adv-x="1308" d="M98 -338v1329q0 55 8 73q16 38 66 38h274q101 0 101 -53v-48q61 66 141 103t177.5 37t159.5 -32t109 -99q103 -146 103 -437q0 -468 -217 -571q-66 -31 -141 -31q-228 0 -332 135v-434q0 -31 -15.5 -56.5t-46.5 -25.5h-292q-66 0 -80.5 18.5t-14.5 53.5zM596 399 q0 -137 82 -137q71 0 75 92q1 25 1 45v295q0 103 -40 142q-18 16 -45.5 16t-42 -16.5t-21.5 -41.5q-9 -31 -9 -100v-295z" />
<glyph unicode="q" horiz-adv-x="1308" d="M72 566.5q0 160.5 26.5 268t73.5 175.5q92 131 248 131q120 0 220 -47q63 -29 122 -93v46q0 55 86 55h289q57 0 65 -21.5t8 -60.5v-1358q0 -35 -14 -53.5t-80 -18.5h-293q-61 0 -61 60v456q-104 -135 -332 -135q-255 0 -330 319q-28 116 -28 276.5zM555 399q0 -64 9 -87 q20 -50 60 -50t56 13.5t24 34.5q9 25 9 89v295q0 115 -35 144q-16 14 -44 14t-43.5 -13.5t-23.5 -34.5q-12 -33 -12 -110v-295z" />
<glyph unicode="r" horiz-adv-x="940" d="M98 96v924q0 31 15.5 56.5t46.5 25.5h293q41 0 68.5 -10.5t27.5 -44.5v-41q66 55 132.5 87.5t174.5 32.5q12 0 29.5 -4t17.5 -30v-261q0 -47 -47 -47q-83 0 -153.5 -28.5t-113 -69.5t-42.5 -86v-489q0 -55 -7 -73q-16 -38 -67 -38h-274q-101 0 -101 96z" />
<glyph unicode="s" horiz-adv-x="1083" d="M67 190q1 38 5 68.5t12 50t33 13.5t90 -20.5t162.5 -14.5t134.5 11t37 39t-32 44t-80 36.5t-107.5 49.5t-110.5 72q-121 102 -121 258q0 175 174 266q152 80 377 80q204 0 309 -35q14 -6 16 -49v-12q0 -38 -8 -80q-26 -129 -65 -129q-16 0 -77 9q-100 15 -152 15 q-100 0 -101 -47q0 -22 76 -58.5t139.5 -69t118.5 -80.5t92 -115.5t37 -174t-48 -177t-120 -108.5q-116 -61 -315 -61q-224 0 -398 47q-43 11 -59 19q-10 5 -15 60q-4 46 -4 80v13z" />
<glyph unicode="t" horiz-adv-x="858" d="M31 887v133q0 43 16 61.5t59 18.5h76v143q0 39 32 59.5t69 26.5l235 39q19 3 33 3q29 1 37 -13q10 -20 10 -64v-194h129q66 0 66 -101v-116q0 -43 -7.5 -64.5t-48.5 -21.5h-125v-445q0 -55 76 -55q20 0 31.5 2t22 -42t17.5 -97q10 -78 10 -115q-1 -29 -7 -33 q-14 -8 -40 -14t-60 -12q-87 -15 -172.5 -15t-151.5 29t-106 74q-72 83 -72 194v535h-68q-39 0 -50 22.5t-11 61.5z" />
<glyph unicode="u" horiz-adv-x="1277" d="M98 326v665q0 43 18.5 77t61.5 34h287q39 0 69.5 -23.5t30.5 -62.5v-533q0 -102 80 -102q49 0 67.5 31.5t18.5 66.5v512q0 55 7 73q15 38 67 38h274q101 0 101 -96v-926q0 -31 -15.5 -56.5t-46.5 -25.5h-293q-71 0 -88 42q-8 19 -8 54q-66 -55 -132.5 -88t-147 -33 t-138 18.5t-104.5 59.5q-109 95 -109 275z" />
<glyph unicode="v" horiz-adv-x="1255" d="M6 1030q-8 18 -8 32q0 40 72 40h313q31 0 58.5 -25.5t37.5 -56.5l189 -561l188 561q10 31 38 56.5t58 25.5h232q54 0 66 -18q5 -8 5 -18q0 -15 -8 -36l-336 -919q-43 -111 -114 -111h-361q-83 0 -125 111z" />
<glyph unicode="w" horiz-adv-x="1929" d="M6 1030q-7 17 -7 30q0 42 71 42h313q31 0 58.5 -25.5t37.5 -56.5l189 -561l110 315l-96 256q-7 17 -7 30q0 42 70 42h314q31 0 58.5 -25.5t37.5 -56.5l188 -561l189 561q10 31 37.5 56.5t58.5 25.5h232q55 0 66 -18q5 -8 5 -19q0 -15 -8 -35l-336 -919 q-43 -111 -114 -111h-299q-57 0 -83 35t-42 76l-109 282l-117 -282q-25 -59 -51.5 -85t-62.5 -26h-232q-57 0 -82.5 35t-42.5 76z" />
<glyph unicode="x" horiz-adv-x="1134" d="M27 1084q6 18 65 18h318q31 0 61.5 -25.5t48.5 -56.5l80 -131l88 131q57 82 111 82h231q66 0 70 -20q1 -3 1 -6q0 -18 -20 -46l-293 -442l306 -492q21 -35 21 -57q0 -39 -66 -39h-299q-50 0 -75.5 25.5t-37.5 45t-25 40.5l-80 129l-88 -129q-41 -64 -56 -79 q-30 -32 -81 -32h-213q-59 0 -65 28q-1 5 -1 12q0 25 21 56l295 445l-303 489q-15 27 -15 44q0 6 1 10z" />
<glyph unicode="y" horiz-adv-x="1261" d="M18 1030q-7 17 -7 30q0 42 71 42h334q31 0 58.5 -25.5t37.5 -56.5l147 -418l168 418q12 31 39 56.5t58 25.5h252q55 0 67 -18q5 -8 5 -19q0 -15 -9 -35l-577 -1358q-12 -29 -39 -55.5t-58 -26.5h-231q-55 0 -67.5 18.5t3.5 53.5l154 365z" />
<glyph unicode="z" horiz-adv-x="1120" d="M62 32q-4 8 -4 17q0 21 18 49l420 721h-340q-54 0 -64 9q-16 13 -16 67v125q0 47 18.5 64.5t63.5 17.5h825q67 0 89 -22q13 -12 12 -26q0 -11 -7 -24l-438 -747h340q47 0 63.5 -9.5t16.5 -66.5v-125q0 -47 -18.5 -64.5t-63.5 -17.5h-805q-93 0 -110 32z" />
<glyph unicode="{" horiz-adv-x="952" d="M39 627v168q0 20 33 25t65.5 18.5t58.5 35.5q56 47 56 117v283q0 124 90 204q92 81 233 81h242q37 0 49.5 -18.5t12.5 -53.5v-184q0 -27 -17.5 -46.5t-44.5 -19.5h-18q-103 0 -103 -119v-192q0 -112 -120 -182q-33 -19 -66 -27q68 -18 129 -89q57 -67 57 -153v-219 q0 -129 92 -129h39q52 0 52 -59v-220q0 -29 -15.5 -41t-58.5 -12h-205q-153 0 -249 86q-99 88 -99 223v306q0 58 -54 114q-51 54 -130 66q-29 4 -29 37z" />
<glyph unicode="|" horiz-adv-x="761" d="M168 -332v1888q0 41 17.5 53.5t70.5 12.5h293q37 0 49 -18.5t12 -53.5v-1896q0 -29 -15 -41t-58 -12h-265q-55 0 -79.5 13t-24.5 54z" />
<glyph unicode="}" horiz-adv-x="952" d="M76 68q0 59 51 59h39q92 0 92 129v219q0 123 117 208q33 24 69 34q-69 16 -126 73q-60 60 -60 136v192q0 61 -27.5 90t-74.5 29h-19q-27 0 -44 19.5t-17 46.5v184q0 35 12 53.5t49 18.5h242q141 0 233 -81q90 -80 90 -204v-283q0 -70 56 -117q50 -42 129 -55 q29 -4 28 -24v-168q0 -33 -33.5 -38t-67.5 -22.5t-58 -42.5q-54 -56 -54 -114v-306q0 -135 -99 -223q-96 -86 -249 -86h-204q-43 0 -58.5 12.5t-15.5 40.5v220z" />
<glyph unicode="~" horiz-adv-x="1136" d="M117 489q18 108 100 203q91 105 193 105q58 0 126 -34t101 -49.5t65 -15.5q55 0 99 82q12 23 39 17l161 -45q20 -4 24.5 -14.5t-3.5 -45t-39 -88t-73 -96.5q-96 -98 -205 -98q-50 0 -107 33.5t-89 49t-65 15.5t-65.5 -26.5t-42.5 -59.5q-6 -27 -41 -12l-154 45 q-33 6 -24 34z" />
<glyph horiz-adv-x="1402" d="M68 1190l12 254q2 23 10 39t45 16h1088q25 0 51 -12t26 -39v-127q0 -43 -26 -88l-535 -866h496q43 0 68.5 -9.5t25.5 -46.5v-256q0 -23 -9 -39t-46 -16h-1135q-51 0 -51 51v127q0 42 43 109l520 848h-489q-43 0 -71 9t-23 46zM375 1927.5q4 24.5 53 24.5h164q27 0 38 -6 t27 -29l72 -94l74 94q27 35 63 35h164q46 0 52 -26q5 -18 -15 -46l-201 -233q-10 -12 -28 -32.5t-35 -21.5h-135q-27 0 -45 19.5t-31 34.5l-201 233q-20 23 -16 47.5z" />
<glyph horiz-adv-x="1120" d="M62 32q-12 25 14 66l420 721h-340q-54 0 -64 9q-16 13 -16 67v125q0 47 18.5 64.5t63.5 17.5h825q66 0 88.5 -21.5t5.5 -50.5l-438 -747h340q47 0 63.5 -9.5t16.5 -66.5v-125q0 -47 -18.5 -64.5t-63.5 -17.5h-805q-93 0 -110 32zM250 1559q4 25 53 24h164q27 0 38 -6 t27 -29l72 -94l74 94q27 35 63 35h164q45 0 52 -25q5 -19 -15 -47l-201 -233q-10 -12 -28 -32.5t-35 -20.5h-135q-27 0 -45 19t-31 34l-201 233q-20 23 -16 48z" />
<glyph unicode="&#xa1;" horiz-adv-x="731" d="M150 96l49 883q4 82 61 82h195q63 0 77.5 -18.5t16.5 -53.5l49 -878q4 -51 -6 -81t-68 -30h-274q-59 0 -82 23.5t-18 72.5zM150 1251v166q0 47 18 64.5t63 17.5h293q58 0 67 -14.5t8 -27.5t-1 -30v-182q0 -38 -7 -49q-14 -20 -67 -20h-295q-52 0 -63 8q-16 13 -16 67z " />
<glyph unicode="&#xa2;" horiz-adv-x="1191" d="M74 539q0 256 76 391q80 139 249 182v125q0 72 62 72h293q66 0 80 -18.5t14 -53.5v-115q166 -39 252 -170q18 -29 -62 -96q-64 -54 -132 -88q-124 -63 -128 -41q-14 47 -38.5 85t-86.5 38q-70 0 -74 -92q-1 -25 -1 -45v-295q0 -158 84 -158q46 0 80 52q18 29 36 102 q8 34 105 20q93 -14 153 -41.5t83.5 -48.5t19.5 -39q-29 -115 -95.5 -195.5t-195.5 -115.5v-109q0 -51 -7 -65q-14 -29 -67 -29h-291q-76 0 -82 57q-2 17 -2 37v113q-178 45 -251.5 175t-73.5 366z" />
<glyph unicode="&#xa3;" horiz-adv-x="1341" d="M76 610v170q0 66 18.5 80t52.5 14h99q-17 144 -17 226.5t40 162.5t115 137q158 122 437 122q175 0 305 -44q62 -20 113 -61q39 -33 8 -215q-17 -97 -46 -144q-13 -20 -25 -9q-107 77 -230 77t-178 -45t-55 -90t10 -117h160q54 0 72 -7q38 -15 38 -66v-152 q0 -59 -17.5 -79.5t-78.5 -20.5h-166q-15 -94 -39 -156q-14 -38 58 -42q55 -3 78 -3h34q108 0 314 33q43 4 50 -13.5t7 -39.5v-287q0 -70 -117 -70h-65q-51 0 -134 6.5t-168 12.5t-158 12t-110.5 6t-75.5 -2t-71 -6q-46 -6 -92.5 -16.5t-62 -7t-25.5 12.5q-26 21 -7 66 q98 247 113 494h-102q-31 0 -56.5 15.5t-25.5 45.5z" />
<glyph unicode="&#xa4;" d="M16 147v1156h1457v-1156h-1457zM176 373.5q2 -4.5 10 -4.5h72q14 0 18.5 5t8.5 21l45 154h243l48 -154q4 -16 6 -21t16 -5h80q14 0 21.5 4t-1.5 28l-204 670q-8 33 -37 33h-82q-25 0 -37 -33l-203 -670q-6 -23 -4 -27.5zM352 625l101 336l96 -336h-197zM727 1071 l207 -678q4 -12 9 -18t22 -6h92q16 0 20 5t8 17l211 690q8 23 -22 23h-64q-10 0 -13 -5t-9 -22l-168 -565l-170 565q-4 16 -7 21.5t-18 5.5h-77q-12 0 -20.5 -5t-0.5 -28z" />
<glyph unicode="&#xa5;" horiz-adv-x="1417" d="M39 1490q13 9 72 9h378q50 0 63 -10q17 -13 42 -55l190 -437q23 63 47.5 121t40.5 99l91 217q26 44 37 51q18 14 67 14h246q58 0 69 -7t9.5 -22.5t-66 -143.5t-125.5 -255t-96 -200.5t-62.5 -130t-43.5 -91.5l-17 -35v-82h102q55 0 73 -7q38 -15 38 -66v-152 q0 -59 -17.5 -79.5t-78.5 -20.5h-117v-139q0 -41 -24.5 -54.5t-79.5 -13.5h-326q-43 0 -58.5 12.5t-15.5 40.5v154h-119q-31 0 -56.5 15.5t-25.5 45.5v170q0 66 18.5 80t53.5 14h129v86l-428 809q-29 49 -10 63z" />
<glyph unicode="&#xa6;" d="M16 147v1156h1457v-1156h-1457zM176 373.5q2 -4.5 10 -4.5h72q14 0 18.5 5t8.5 21l45 154h243l48 -154q4 -16 6 -21t16 -5h80q14 0 21.5 4t-1.5 28l-204 670q-8 33 -37 33h-82q-25 0 -37 -33l-203 -670q-6 -23 -4 -27.5zM352 625l101 336l96 -336h-197zM727 1071 l207 -678q4 -12 9 -18t22 -6h92q16 0 20 5t8 17l211 690q8 23 -22 23h-64q-10 0 -13 -5t-9 -22l-168 -565l-170 565q-4 16 -7 21.5t-18 5.5h-77q-12 0 -20.5 -5t-0.5 -28z" />
<glyph unicode="&#xa7;" horiz-adv-x="1089" d="M103 64.5q1 37.5 5.5 68.5t12.5 50.5t33 13.5q149 -35 277 -35t157.5 13t29.5 37.5t-31.5 42t-79.5 38t-114.5 49.5t-124.5 72q-141 103 -141 260t145 248q-145 116 -145 254q0 175 164 266q144 80 366 80q196 0 277 -25l33 -10q30 -12 3 -160q-15 -85 -33.5 -114 t-31.5 -25q-224 53 -287 53q-100 0 -100 -47q0 -21 75.5 -58t142.5 -69.5t126 -80.5q139 -112 139 -286.5t-129 -265.5q129 -101 129 -227q0 -188 -127 -279q-116 -82 -315 -82q-218 0 -380 46q-40 12 -51 17t-15 28.5t-7.5 56.5t-2.5 70.5zM459 694q0 -82 102 -104 q66 -15 101 31q12 15 12 38t-14.5 52.5t-68 46t-93 -5t-39.5 -58.5z" />
<glyph unicode="&#xa8;" horiz-adv-x="1024" d="M61 1284v221q0 61 62 62h260q41 0 51 -18.5t10 -53.5v-197q0 -41 -12 -58t-61 -17h-236q-41 0 -57.5 10t-16.5 51zM559 1294v201q0 41 15.5 56.5t58.5 15.5h231q51 0 64.5 -16.5t13.5 -57.5v-213q0 -57 -61 -57h-228q-66 0 -80 18.5t-14 52.5z" />
<glyph unicode="&#xa9;" horiz-adv-x="1556" d="M51 731q0 154 56.5 287t154.5 231.5t231.5 155.5t284.5 57q152 0 285 -57t231.5 -155.5t154.5 -231.5t56 -287t-56 -287t-154.5 -231t-231.5 -155.5t-285 -57.5t-285 57.5t-231 155.5t-154.5 231.5t-56.5 286.5zM211 731q0 -243 167 -411q77 -78 180.5 -123t219.5 -45 q117 0 220.5 45t179.5 123q168 169 168 411q0 240 -168 413q-161 167 -400 167q-237 0 -400 -167q-167 -171 -167 -413zM465 608v226q0 131 76 200q95 86 297 86q102 0 145 -14.5t50 -21.5t3 -33.5t-13 -56.5q-24 -82 -36 -76q-54 12 -101 12t-71 -3t-45 -15 q-49 -27 -49 -103v-162q0 -57 17.5 -88t83 -31t103.5 12.5t56 16.5q12 4 29 -54q30 -108 20 -118t-72.5 -25.5t-157.5 -15.5t-158.5 21.5t-102.5 57.5q-74 68 -74 185z" />
<glyph unicode="&#xaa;" horiz-adv-x="1026" d="M104 1106q0 113 19.5 193.5t53.5 130.5q64 92 170.5 92t158 -21.5t82.5 -73.5v11q0 57 43 57h205q47 0 56 -13.5t9 -37.5v-643q0 -29 -6 -53.5t-45 -24.5h-193q-29 0 -49 7t-20 36v35q-66 -96 -250 -96q-159 0 -214 213q-20 75 -20 188zM442 1016q0 -68 29 -98 q12 -13 31 -13q51 0 51 111v207q0 68 -18.5 82t-38.5 14q-49 0 -53 -65q-1 -17 -1 -31v-207z" />
<glyph unicode="&#xab;" horiz-adv-x="1251" d="M49 655l297 451q14 23 26.5 31t37.5 -7l217 -110q23 -12 22.5 -27.5t-16.5 -38.5l-213 -299l211 -295q29 -41 -6 -57l-213 -119q-29 -16 -41.5 -5t-30.5 38zM602 655l297 451q14 23 26.5 31t37.5 -7l217 -110q23 -12 22.5 -27.5t-16.5 -38.5l-213 -299l211 -295 q29 -41 -6 -57l-213 -119q-29 -16 -41.5 -5t-30.5 38z" />
<glyph unicode="&#xac;" d="M16 147v1156h1457v-1156h-1457zM176 373.5q2 -4.5 10 -4.5h72q14 0 18.5 5t8.5 21l45 154h243l48 -154q4 -16 6 -21t16 -5h80q14 0 21.5 4t-1.5 28l-204 670q-8 33 -37 33h-82q-25 0 -37 -33l-203 -670q-6 -23 -4 -27.5zM352 625l101 336l96 -336h-197zM727 1071 l207 -678q4 -12 9 -18t22 -6h92q16 0 20 5t8 17l211 690q8 23 -22 23h-64q-10 0 -13 -5t-9 -22l-168 -565l-170 565q-4 16 -7 21.5t-18 5.5h-77q-12 0 -20.5 -5t-0.5 -28z" />
<glyph unicode="&#xad;" horiz-adv-x="1144" d="M119 569v170q0 66 18.5 80.5t52.5 14.5h736q80 0 100 -30q10 -16 10 -44v-152q0 -59 -17.5 -79.5t-78.5 -20.5h-739q-31 0 -56.5 15.5t-25.5 45.5z" />
<glyph unicode="&#xae;" horiz-adv-x="1556" d="M51 731q0 154 56.5 287t154.5 231.5t231.5 155.5t284.5 57q152 0 285 -57t231.5 -155.5t154.5 -231.5t56 -287t-56 -287t-154.5 -231t-231.5 -155.5t-285 -57.5t-285 57.5t-231 155.5t-154.5 231.5t-56.5 286.5zM211 731q0 -243 167 -411q77 -78 180.5 -123t219.5 -45 q117 0 220.5 45t179.5 123q168 169 168 411q0 240 -168 413q-161 167 -400 167q-237 0 -400 -167q-167 -171 -167 -413zM467 408v684q0 16 7 21t30 5h313q145 0 229 -74q76 -69 76 -170q0 -45 -11 -75.5t-27 -52.5q-29 -40 -68 -62q-10 -6 -11 -7t3 -11l112 -269 q4 -12 4 -23.5t-22 -8.5h-199q-27 2 -32 9t-11 21l-92 209q-4 8 -14 8h-27q-8 0 -8 -14v-197q0 -20 -12.5 -26t-40.5 -6h-168q-25 0 -28 9t-3 30zM723 829q0 -23 20 -22h70q20 0 38.5 17.5t18.5 46.5t-23.5 48t-51.5 19h-54q-18 0 -18 -18v-91z" />
<glyph unicode="&#xaf;" horiz-adv-x="1024" d="M115 1331v109q0 66 18.5 80t52.5 14h613q54 0 72 -7q38 -15 38 -67v-90q0 -59 -17.5 -79.5t-78.5 -20.5h-616q-31 0 -56.5 15t-25.5 46z" />
<glyph unicode="&#xb0;" horiz-adv-x="886" d="M70 1122q0 151 106 258q105 107 258 107t258 -107q107 -108 107 -258q0 -151 -107 -258q-106 -106 -258 -106t-258 106t-106 258zM285 1122q0 -61 44 -110t105 -49t105.5 49t44.5 110t-44 110.5t-106 49.5q-61 0 -105 -49t-44 -111z" />
<glyph unicode="&#xb1;" horiz-adv-x="2283" d="M59 852v133q0 39 11.5 61.5t50.5 22.5h65q-11 14 -18.5 61.5t-6.5 93.5t20.5 98t62.5 97q98 103 286 103q102 0 172 -16.5t80 -21.5t8 -51.5t-9 -99.5q-18 -139 -38 -139l-55 2q-27 0 -47 -10t-20 -42t17 -53.5t40 -21.5h272q-11 14 -18.5 61.5t-6.5 93.5t20.5 98 t62.5 97q98 103 286 103q102 0 172 -16.5t80 -21.5t8 -51.5t-9 -99.5q-18 -139 -38 -139l-55 2q-27 0 -47.5 -10t-20.5 -42t17.5 -50.5t40.5 -18.5h84q41 0 48 -21.5t7 -64.5v-117q0 -100 -65 -100h-89v-655q0 -43 -18 -80t-61 -37h-273q-39 0 -69.5 23.5t-30.5 62.5v686 h-311v-655q0 -43 -18.5 -80t-61.5 -37h-273q-39 0 -69.5 23.5t-30.5 62.5v686h-76q-43 0 -59.5 18.5t-16.5 61.5zM1737 72v1392q0 23 15 40.5t46 17.5h293q66 0 80 -18.5t14 -53.5v-1356q0 -51 -7 -65q-14 -29 -67 -29h-294q-53 0 -66.5 12.5t-13.5 59.5z" />
<glyph unicode="&#xb2;" d="M16 147v1156h1457v-1156h-1457zM176 373.5q2 -4.5 10 -4.5h72q14 0 18.5 5t8.5 21l45 154h243l48 -154q4 -16 6 -21t16 -5h80q14 0 21.5 4t-1.5 28l-204 670q-8 33 -37 33h-82q-25 0 -37 -33l-203 -670q-6 -23 -4 -27.5zM352 625l101 336l96 -336h-197zM727 1071 l207 -678q4 -12 9 -18t22 -6h92q16 0 20 5t8 17l211 690q8 23 -22 23h-64q-10 0 -13 -5t-9 -22l-168 -565l-170 565q-4 16 -7 21.5t-18 5.5h-77q-12 0 -20.5 -5t-0.5 -28z" />
<glyph unicode="&#xb3;" d="M16 147v1156h1457v-1156h-1457zM176 373.5q2 -4.5 10 -4.5h72q14 0 18.5 5t8.5 21l45 154h243l48 -154q4 -16 6 -21t16 -5h80q14 0 21.5 4t-1.5 28l-204 670q-8 33 -37 33h-82q-25 0 -37 -33l-203 -670q-6 -23 -4 -27.5zM352 625l101 336l96 -336h-197zM727 1071 l207 -678q4 -12 9 -18t22 -6h92q16 0 20 5t8 17l211 690q8 23 -22 23h-64q-10 0 -13 -5t-9 -22l-168 -565l-170 565q-4 16 -7 21.5t-18 5.5h-77q-12 0 -20.5 -5t-0.5 -28z" />
<glyph unicode="&#xb4;" horiz-adv-x="1024" d="M227 1242.5q-8 19.5 13 47.5l166 238q34 53 75 53h267q51 0 58 -22.5t-22 -49.5l-262 -233q-16 -14 -38.5 -33.5t-55.5 -19.5h-152q-41 0 -49 19.5z" />
<glyph unicode="&#xb5;" d="M16 147v1156h1457v-1156h-1457zM176 373.5q2 -4.5 10 -4.5h72q14 0 18.5 5t8.5 21l45 154h243l48 -154q4 -16 6 -21t16 -5h80q14 0 21.5 4t-1.5 28l-204 670q-8 33 -37 33h-82q-25 0 -37 -33l-203 -670q-6 -23 -4 -27.5zM352 625l101 336l96 -336h-197zM727 1071 l207 -678q4 -12 9 -18t22 -6h92q16 0 20 5t8 17l211 690q8 23 -22 23h-64q-10 0 -13 -5t-9 -22l-168 -565l-170 565q-4 16 -7 21.5t-18 5.5h-77q-12 0 -20.5 -5t-0.5 -28z" />
<glyph unicode="&#xb6;" horiz-adv-x="1257" d="M76 963q0 414 393 507q125 29 285 29h307q43 0 58.5 -12t15.5 -41v-1739q0 -35 -7.5 -53.5t-54.5 -18.5h-158q-27 0 -26 23v1606q0 10 -1 18t-18 8h-53q-23 0 -22 -26v-1606q0 -23 -27 -23h-147q-39 0 -55.5 12.5t-16.5 53.5v676q0 33 -10.5 44t-64.5 11t-130 32t-136 96 q-132 141 -132 403z" />
<glyph unicode="&#xb7;" horiz-adv-x="653" d="M96 612v166q0 31 15.5 56.5t46.5 25.5h293q66 0 80 -18.5t14 -53.5v-161q0 -55 -7 -73q-17 -38 -67 -38h-274q-101 0 -101 96z" />
<glyph unicode="&#xb8;" horiz-adv-x="1024" d="M229 -309q-4 10 12.5 22.5t38.5 20.5q57 21 64 0q6 -25 40 -43.5t68 -18.5q91 0 91 72q0 41 -20.5 51t-46.5 10t-39 -8t-18 -9t-5 17v228h159v-117q76 0 124 -43t48 -109.5t-22.5 -103.5t-58.5 -60q-73 -44 -175 -44q-217 0 -260 135z" />
<glyph unicode="&#xb9;" d="M16 147v1156h1457v-1156h-1457zM176 373.5q2 -4.5 10 -4.5h72q14 0 18.5 5t8.5 21l45 154h243l48 -154q4 -16 6 -21t16 -5h80q14 0 21.5 4t-1.5 28l-204 670q-8 33 -37 33h-82q-25 0 -37 -33l-203 -670q-6 -23 -4 -27.5zM352 625l101 336l96 -336h-197zM727 1071 l207 -678q4 -12 9 -18t22 -6h92q16 0 20 5t8 17l211 690q8 23 -22 23h-64q-10 0 -13 -5t-9 -22l-168 -565l-170 565q-4 16 -7 21.5t-18 5.5h-77q-12 0 -20.5 -5t-0.5 -28z" />
<glyph unicode="&#xba;" horiz-adv-x="987" d="M109 1100q0 235 94 330q92 92 315 92q198 0 282 -94q87 -98 87 -311.5t-82 -312.5t-291 -99q-226 0 -315 91q-90 92 -90 304zM453 1016q0 -70 29 -98q12 -13 30 -13q51 0 51 111v207q0 68 -18.5 82t-38.5 14q-48 0 -52 -65q-1 -17 -1 -31v-207z" />
<glyph unicode="&#xbb;" horiz-adv-x="1251" d="M100 322.5q0 15.5 17 37.5l213 299l-211 295q-29 41 6 58l213 118q29 16 41 5t31 -37l290 -439l-297 -450q-14 -23 -26 -31t-37 6l-217 111q-23 12 -23 27.5zM653 322.5q0 15.5 17 37.5l213 299l-211 295q-29 41 6 58l213 118q29 16 41 5t31 -37l290 -439l-297 -450 q-14 -23 -26 -31t-37 6l-217 111q-23 12 -23 27.5z" />
<glyph unicode="&#xbc;" d="M16 147v1156h1457v-1156h-1457zM176 373.5q2 -4.5 10 -4.5h72q14 0 18.5 5t8.5 21l45 154h243l48 -154q4 -16 6 -21t16 -5h80q14 0 21.5 4t-1.5 28l-204 670q-8 33 -37 33h-82q-25 0 -37 -33l-203 -670q-6 -23 -4 -27.5zM352 625l101 336l96 -336h-197zM727 1071 l207 -678q4 -12 9 -18t22 -6h92q16 0 20 5t8 17l211 690q8 23 -22 23h-64q-10 0 -13 -5t-9 -22l-168 -565l-170 565q-4 16 -7 21.5t-18 5.5h-77q-12 0 -20.5 -5t-0.5 -28z" />
<glyph unicode="&#xbd;" d="M16 147v1156h1457v-1156h-1457zM176 373.5q2 -4.5 10 -4.5h72q14 0 18.5 5t8.5 21l45 154h243l48 -154q4 -16 6 -21t16 -5h80q14 0 21.5 4t-1.5 28l-204 670q-8 33 -37 33h-82q-25 0 -37 -33l-203 -670q-6 -23 -4 -27.5zM352 625l101 336l96 -336h-197zM727 1071 l207 -678q4 -12 9 -18t22 -6h92q16 0 20 5t8 17l211 690q8 23 -22 23h-64q-10 0 -13 -5t-9 -22l-168 -565l-170 565q-4 16 -7 21.5t-18 5.5h-77q-12 0 -20.5 -5t-0.5 -28z" />
<glyph unicode="&#xbe;" d="M16 147v1156h1457v-1156h-1457zM176 373.5q2 -4.5 10 -4.5h72q14 0 18.5 5t8.5 21l45 154h243l48 -154q4 -16 6 -21t16 -5h80q14 0 21.5 4t-1.5 28l-204 670q-8 33 -37 33h-82q-25 0 -37 -33l-203 -670q-6 -23 -4 -27.5zM352 625l101 336l96 -336h-197zM727 1071 l207 -678q4 -12 9 -18t22 -6h92q16 0 20 5t8 17l211 690q8 23 -22 23h-64q-10 0 -13 -5t-9 -22l-168 -565l-170 565q-4 16 -7 21.5t-18 5.5h-77q-12 0 -20.5 -5t-0.5 -28z" />
<glyph unicode="&#xbf;" horiz-adv-x="970" d="M25 291q0 106 38.5 182t87 136.5t87 113.5t38.5 117v123q0 39 31 62.5t70 23.5h256q84 0 80 -64v-65q0 -67 -12 -128t-50.5 -111t-77 -91t-68.5 -83t-30 -89t20.5 -70.5t69 -23.5t86 10t72.5 26q67 29 108 60q35 23 65 -48q53 -123 26 -226q-9 -33 -24 -45.5t-46 -32 t-82 -40.5q-128 -51 -278 -51q-221 0 -344 80t-123 234zM281 1247v142q0 54 7 72q15 38 66 38h275q100 0 100 -96v-146q0 -31 -15.5 -56t-45.5 -25h-314q-74 0 -73 71z" />
<glyph unicode="&#xc0;" horiz-adv-x="1501" d="M29 68l415 1366q10 37 31 51t74 14h403q53 0 72.5 -14.5t32.5 -50.5l416 -1366q16 -49 -7.5 -58.5t-79.5 -9.5h-344q-43 0 -53 11.5t-20 41.5l-56 185h-421l-56 -185q-10 -31 -21.5 -42t-52.5 -11h-292q-64 0 -41 68zM394.5 1927.5q7.5 22.5 58.5 22.5h266q27 0 43 -14.5 t33 -38.5l166 -238q20 -29 12 -48t-49 -19h-152q-33 0 -55.5 19.5t-38.5 33.5l-262 233q-29 27 -21.5 49.5zM578 522h247l-125 412z" />
<glyph unicode="&#xc1;" horiz-adv-x="1501" d="M29 68l415 1366q10 37 31 51t74 14h403q53 0 72.5 -14.5t32.5 -50.5l416 -1366q16 -49 -7.5 -58.5t-79.5 -9.5h-344q-43 0 -53 11.5t-20 41.5l-56 185h-421l-56 -185q-10 -31 -21.5 -42t-52.5 -11h-292q-64 0 -41 68zM555 1611.5q-8 19.5 13 47.5l166 238q34 53 75 53 h267q51 0 58 -22.5t-22 -49.5l-262 -233q-16 -14 -38.5 -33.5t-55.5 -19.5h-152q-41 0 -49 19.5zM578 522h247l-125 412z" />
<glyph unicode="&#xc2;" horiz-adv-x="1501" d="M29 68l415 1366q10 37 31 51t74 14h403q53 0 72.5 -14.5t32.5 -50.5l416 -1366q16 -49 -7.5 -58.5t-79.5 -9.5h-344q-43 0 -53 11.5t-20 41.5l-56 185h-421l-56 -185q-10 -31 -21.5 -42t-52.5 -11h-292q-64 0 -41 68zM382 1616q-8 25 16 47l200 234q10 12 28.5 32.5 t35.5 20.5h135q27 0 45 -19.5t31 -33.5l200 -234q20 -23 16.5 -47t-53.5 -24h-163q-27 0 -38.5 6t-27.5 28l-72 95l-73 -95q-27 -34 -64 -34h-164q-45 0 -52 24zM578 522h247l-125 412z" />
<glyph unicode="&#xc3;" horiz-adv-x="1501" d="M29 68l415 1366q10 37 31 51t74 14h403q53 0 72.5 -14.5t32.5 -50.5l416 -1366q16 -49 -7.5 -58.5t-79.5 -9.5h-344q-43 0 -53 11.5t-20 41.5l-56 185h-421l-56 -185q-10 -31 -21.5 -42t-52.5 -11h-292q-64 0 -41 68zM325 1674q12 93 92 184q81 94 175 94q56 0 117 -30.5 t89.5 -44t58.5 -13.5q50 0 91 74q10 20 35 14l147 -41q18 -4 22.5 -13.5t-3.5 -41t-36 -79.5t-66 -88q-85 -89 -187 -89q-33 0 -62.5 14.5t-58.5 30.5t-57.5 30.5t-58.5 14.5t-59.5 -24.5t-39.5 -53.5q-6 -25 -37 -12l-139 41q-31 6 -23 33zM578 522h247l-125 412z" />
<glyph unicode="&#xc4;" horiz-adv-x="1501" d="M29 68l415 1366q10 37 31 51t74 14h403q53 0 72.5 -14.5t32.5 -50.5l416 -1366q16 -49 -7.5 -58.5t-79.5 -9.5h-344q-43 0 -53 11.5t-20 41.5l-56 185h-421l-56 -185q-10 -31 -21.5 -42t-52.5 -11h-292q-64 0 -41 68zM282 1677v221q0 61 62 62h260q41 0 51 -18.5 t10 -53.5v-197q0 -41 -12 -58t-61 -17h-236q-41 0 -57.5 10t-16.5 51zM578 522h247l-125 412zM780 1687v201q0 41 15.5 56.5t58.5 15.5h231q51 0 64.5 -16.5t13.5 -57.5v-213q0 -57 -61 -57h-228q-66 0 -80 18.5t-14 52.5z" />
<glyph unicode="&#xc5;" horiz-adv-x="1501" d="M29 68l415 1366q10 37 31 51t74 14h403q53 0 72.5 -14.5t32.5 -50.5l416 -1366q16 -49 -7.5 -58.5t-79.5 -9.5h-344q-43 0 -53 11.5t-20 41.5l-56 185h-421l-56 -185q-10 -31 -21.5 -42t-52.5 -11h-292q-64 0 -41 68zM449 1819q0 117 90 205q89 87 209 85q121 0 208 -85 q91 -89 91 -205q0 -117 -91 -206q-89 -87 -208 -85q-122 0 -209 85q-92 90 -90 206zM578 522h247l-125 412zM641 1819q0 -45 31 -80t76 -35t75.5 35t30.5 80t-31 79.5t-75 34.5q-45 0 -76 -35t-31 -79z" />
<glyph unicode="&#xc6;" horiz-adv-x="2004" d="M29 68l600 1366q16 35 36.5 50t67.5 15h1075q37 0 46.5 -16.5t9.5 -38.5v-254q0 -37 -26 -46t-69 -9h-387q-53 0 -53 -33v-96q0 -25 14.5 -36.5t30.5 -11.5h350q43 0 55.5 -17t10.5 -38l-18 -250q-3 -45 -44 -61q-16 -6 -32 -6h-305q-25 0 -41.5 -12.5t-16.5 -34.5v-113 q0 -35 25.5 -40t58.5 -5h363q68 0 98.5 -11.5t30.5 -41.5v-269q0 -31 -13.5 -45t-29.5 -14h-942q-20 0 -46 15.5t-26 56.5v114q0 20 -11.5 36t-33.5 16h-275l-75 -185q-12 -29 -25.5 -41t-48.5 -12h-313q-64 0 -41 68zM629 522h178q23 0 34 20.5t11 43.5v485z" />
<glyph unicode="&#xc7;" horiz-adv-x="1345" d="M113 498v450q0 261 151 403q182 171 596 171q259 0 362 -54q25 -14 33 -22t5 -35t-11 -63.5t-20 -78.5t-25 -77q-31 -80 -47 -76q-18 4 -38.5 9t-48.5 9q-60 7 -132 7t-122 -5.5t-92 -29.5q-97 -54 -97 -207v-324q0 -124 26.5 -164t64.5 -55.5t137 -15.5t176 22.5 t114 32.5q25 6 71 -161q47 -165 28 -184t-137 -46t-308 -31v-57q76 0 124 -43t48 -109.5t-22.5 -103.5t-59.5 -60q-73 -44 -175 -44q-218 0 -259 135q-4 10 12 22.5t37 20.5q58 21 65 0q6 -25 40 -43.5t68 -18.5q91 0 91 72q0 41 -20.5 51t-46 10t-39 -8t-18.5 -9t-5 17v175 q-268 26 -407 178q-119 131 -119 340z" />
<glyph unicode="&#xc8;" horiz-adv-x="1271" d="M129 72v1360q0 29 7 48t48 19h901q37 0 46.5 -16.5t9.5 -38.5v-254q0 -37 -25.5 -46t-68.5 -9h-388q-53 0 -53 -33v-96q0 -25 14.5 -36.5t30.5 -11.5h350q43 0 55.5 -17t10.5 -38l-18 -250q-3 -45 -45 -61q-15 -6 -32 -6h-304q-25 0 -41.5 -12.5t-16.5 -34.5v-113 q0 -35 26 -40t58 -5h363q68 0 98.5 -11.5t30.5 -41.5v-269q0 -31 -13.5 -45t-29.5 -14h-942q-20 0 -46 15.5t-26 56.5zM302.5 1927.5q7.5 22.5 58.5 22.5h266q27 0 43 -14.5t33 -38.5l166 -238q20 -29 12 -48t-49 -19h-152q-33 0 -55.5 19.5t-38.5 33.5l-262 233 q-29 27 -21.5 49.5z" />
<glyph unicode="&#xc9;" horiz-adv-x="1271" d="M129 72v1360q0 29 7 48t48 19h901q37 0 46.5 -16.5t9.5 -38.5v-254q0 -37 -25.5 -46t-68.5 -9h-388q-53 0 -53 -33v-96q0 -25 14.5 -36.5t30.5 -11.5h350q43 0 55.5 -17t10.5 -38l-18 -250q-3 -45 -45 -61q-15 -6 -32 -6h-304q-25 0 -41.5 -12.5t-16.5 -34.5v-113 q0 -35 26 -40t58 -5h363q68 0 98.5 -11.5t30.5 -41.5v-269q0 -31 -13.5 -45t-29.5 -14h-942q-20 0 -46 15.5t-26 56.5zM473 1611.5q-8 19.5 13 47.5l166 238q34 53 75 53h267q51 0 58 -22.5t-22 -49.5l-262 -233q-16 -14 -38.5 -33.5t-55.5 -19.5h-152q-41 0 -49 19.5z" />
<glyph unicode="&#xca;" horiz-adv-x="1271" d="M129 72v1360q0 29 7 48t48 19h901q37 0 46.5 -16.5t9.5 -38.5v-254q0 -37 -25.5 -46t-68.5 -9h-388q-53 0 -53 -33v-96q0 -25 14.5 -36.5t30.5 -11.5h350q43 0 55.5 -17t10.5 -38l-18 -250q-3 -45 -45 -61q-15 -6 -32 -6h-304q-25 0 -41.5 -12.5t-16.5 -34.5v-113 q0 -35 26 -40t58 -5h363q68 0 98.5 -11.5t30.5 -41.5v-269q0 -31 -13.5 -45t-29.5 -14h-942q-20 0 -46 15.5t-26 56.5zM290 1616q-8 25 16 47l200 234q10 12 28.5 32.5t35.5 20.5h135q27 0 45 -19.5t31 -33.5l200 -234q20 -23 16.5 -47t-53.5 -24h-163q-27 0 -38.5 6 t-27.5 28l-72 95l-73 -95q-27 -34 -64 -34h-164q-45 0 -52 24z" />
<glyph unicode="&#xcb;" horiz-adv-x="1271" d="M129 72v1360q0 29 7 48t48 19h901q37 0 46.5 -16.5t9.5 -38.5v-254q0 -37 -25.5 -46t-68.5 -9h-388q-53 0 -53 -33v-96q0 -25 14.5 -36.5t30.5 -11.5h350q43 0 55.5 -17t10.5 -38l-18 -250q-3 -45 -45 -61q-15 -6 -32 -6h-304q-25 0 -41.5 -12.5t-16.5 -34.5v-113 q0 -35 26 -40t58 -5h363q68 0 98.5 -11.5t30.5 -41.5v-269q0 -31 -13.5 -45t-29.5 -14h-942q-20 0 -46 15.5t-26 56.5zM184 1653v221q0 61 62 62h260q41 0 51 -18.5t10 -53.5v-197q0 -41 -12 -58t-61 -17h-236q-41 0 -57.5 10t-16.5 51zM682 1663v201q0 41 15.5 56.5 t58.5 15.5h231q51 0 64.5 -16.5t13.5 -57.5v-213q0 -57 -61 -57h-228q-66 0 -80 18.5t-14 52.5z" />
<glyph unicode="&#xcc;" horiz-adv-x="761" d="M25.5 1927.5q7.5 22.5 58.5 22.5h266q27 0 43 -14.5t33 -38.5l166 -238q20 -29 12 -48t-49 -19h-152q-33 0 -55.5 19.5t-38.5 33.5l-262 233q-29 27 -21.5 49.5zM129 68v1366q0 41 17.5 53t70.5 12h354q37 0 49.5 -18.5t12.5 -53.5v-1374q0 -29 -15.5 -41t-58.5 -12h-326 q-55 0 -79.5 13.5t-24.5 54.5z" />
<glyph unicode="&#xcd;" horiz-adv-x="761" d="M129 68v1366q0 41 17.5 53t70.5 12h354q37 0 49.5 -18.5t12.5 -53.5v-1374q0 -29 -15.5 -41t-58.5 -12h-326q-55 0 -79.5 13.5t-24.5 54.5zM168 1611.5q-8 19.5 13 47.5l166 238q34 53 75 53h267q51 0 58 -22.5t-22 -49.5l-262 -233q-16 -14 -38.5 -33.5t-55.5 -19.5 h-152q-41 0 -49 19.5z" />
<glyph unicode="&#xce;" horiz-adv-x="761" d="M36 1616q-8 25 16 47l200 234q10 12 28.5 32.5t35.5 20.5h135q27 0 45 -19.5t31 -33.5l200 -234q20 -23 16.5 -47t-53.5 -24h-163q-27 0 -38.5 6t-27.5 28l-72 95l-73 -95q-27 -34 -64 -34h-164q-45 0 -52 24zM129 68v1366q0 41 17.5 53t70.5 12h354q37 0 49.5 -18.5 t12.5 -53.5v-1374q0 -29 -15.5 -41t-58.5 -12h-326q-55 0 -79.5 13.5t-24.5 54.5z" />
<glyph unicode="&#xcf;" horiz-adv-x="761" d="M-56 1653v221q0 61 62 62h260q41 0 51 -18.5t10 -53.5v-197q0 -41 -12 -58t-61 -17h-236q-41 0 -57.5 10t-16.5 51zM129 68v1366q0 41 17.5 53t70.5 12h354q37 0 49.5 -18.5t12.5 -53.5v-1374q0 -29 -15.5 -41t-58.5 -12h-326q-55 0 -79.5 13.5t-24.5 54.5zM442 1663v201 q0 41 15.5 56.5t58.5 15.5h231q51 0 64.5 -16.5t13.5 -57.5v-213q0 -57 -61 -57h-228q-66 0 -80 18.5t-14 52.5z" />
<glyph unicode="&#xd0;" horiz-adv-x="1488" d="M16 637v170q0 66 18.5 80t53.5 14h41v500q0 98 68 98h512q292 0 453 -95q214 -126 214 -415v-524q0 -179 -97 -297q-73 -89 -199 -136q-88 -32 -160 -32h-703q-25 0 -56.5 19.5t-31.5 54.5v501h-31q-31 0 -56.5 15.5t-25.5 46.5zM618 446q0 -12 13.5 -34.5t60.5 -22.5h35 q66 0 109 65q34 54 34 140v356q0 63 -28 99q-54 67 -127 67h-29q-47 0 -57.5 -9t-10.5 -42v-164q55 0 73 -7q38 -15 38 -67v-151q0 -59 -17.5 -80t-78.5 -21h-15v-129z" />
<glyph unicode="&#xd1;" horiz-adv-x="1572" d="M129 59v1375q0 36 18.5 50.5t38.5 14.5h275q68 0 84 -23q6 -8 16 -20l375 -584q14 -23 28.5 -17.5t14.5 48.5v531q0 23 16.5 46t46.5 19h330q35 0 48.5 -16.5t13.5 -50.5v-1360q0 -41 -8.5 -64.5t-49.5 -21.5l-270 8q-41 2 -62.5 14t-39.5 41l-369 557q-45 72 -45 -2 v-532q0 -47 -15.5 -59.5t-74.5 -12.5h-236t-98 5q-37 13 -37 54zM364 1674q12 93 92 184q81 94 175 94q56 0 117 -30.5t89.5 -44t58.5 -13.5q50 0 91 74q10 20 35 14l147 -41q18 -4 22.5 -13.5t-3.5 -41t-36 -79.5t-66 -88q-85 -89 -187 -89q-33 0 -62.5 14.5t-58.5 30.5 t-57.5 30.5t-58.5 14.5t-59.5 -24.5t-39.5 -53.5q-6 -25 -37 -12l-139 41q-31 6 -23 33z" />
<glyph unicode="&#xd2;" horiz-adv-x="1472" d="M113 430v578q0 407 363 488q116 26 259 26q304 0 455 -114q170 -129 170 -421v-522q0 -224 -125 -351q-130 -131 -401 -139q-64 -2 -110 -2t-109.5 2t-132 15.5t-135 42t-119.5 79.5q-115 111 -115 318zM353.5 1927.5q7.5 22.5 58.5 22.5h266q27 0 43 -14.5t33 -38.5 l166 -238q20 -29 12 -48t-49 -19h-152q-33 0 -55.5 19.5t-38.5 33.5l-262 233q-29 27 -21.5 49.5zM602 549q0 -84 38 -122t85 -38q84 0 106.5 44t22.5 120v405q0 72 -27.5 114t-100.5 42t-98.5 -44t-25.5 -109v-412z" />
<glyph unicode="&#xd3;" horiz-adv-x="1472" d="M113 430v578q0 407 363 488q116 26 259 26q304 0 455 -114q170 -129 170 -421v-522q0 -224 -125 -351q-130 -131 -401 -139q-64 -2 -110 -2t-109.5 2t-132 15.5t-135 42t-119.5 79.5q-115 111 -115 318zM514 1611.5q-8 19.5 13 47.5l166 238q34 53 75 53h267 q51 0 58 -22.5t-22 -49.5l-262 -233q-16 -14 -38.5 -33.5t-55.5 -19.5h-152q-41 0 -49 19.5zM602 549q0 -84 38 -122t85 -38q84 0 106.5 44t22.5 120v405q0 72 -27.5 114t-100.5 42t-98.5 -44t-25.5 -109v-412z" />
<glyph unicode="&#xd4;" horiz-adv-x="1472" d="M113 430v578q0 407 363 488q116 26 259 26q304 0 455 -114q170 -129 170 -421v-522q0 -224 -125 -351q-130 -131 -401 -139q-64 -2 -110 -2t-109.5 2t-132 15.5t-135 42t-119.5 79.5q-115 111 -115 318zM384 1616q-8 25 16 47l200 234q10 12 28.5 32.5t35.5 20.5h135 q27 0 45 -19.5t31 -33.5l200 -234q20 -23 16.5 -47t-53.5 -24h-163q-27 0 -38.5 6t-27.5 28l-72 95l-73 -95q-27 -34 -64 -34h-164q-45 0 -52 24zM602 549q0 -84 38 -122t85 -38q84 0 106.5 44t22.5 120v405q0 72 -27.5 114t-100.5 42t-98.5 -44t-25.5 -109v-412z" />
<glyph unicode="&#xd5;" horiz-adv-x="1472" d="M113 430v578q0 407 363 488q116 26 259 26q304 0 455 -114q170 -129 170 -421v-522q0 -224 -125 -351q-130 -131 -401 -139q-64 -2 -110 -2t-109.5 2t-132 15.5t-135 42t-119.5 79.5q-115 111 -115 318zM309 1674q12 93 92 184q81 94 175 94q56 0 117 -30.5t89.5 -44 t58.5 -13.5q50 0 91 74q10 20 35 14l147 -41q18 -4 22.5 -13.5t-3.5 -41t-36 -79.5t-66 -88q-85 -89 -187 -89q-33 0 -62.5 14.5t-58.5 30.5t-57.5 30.5t-58.5 14.5t-59.5 -24.5t-39.5 -53.5q-6 -25 -37 -12l-139 41q-31 6 -23 33zM602 549q0 -84 38 -122t85 -38 q84 0 106.5 44t22.5 120v405q0 72 -27.5 114t-100.5 42t-98.5 -44t-25.5 -109v-412z" />
<glyph unicode="&#xd6;" horiz-adv-x="1472" d="M113 430v578q0 407 363 488q116 26 259 26q304 0 455 -114q170 -129 170 -421v-522q0 -224 -125 -351q-130 -131 -401 -139q-64 -2 -110 -2t-109.5 2t-132 15.5t-135 42t-119.5 79.5q-115 111 -115 318zM286 1653v221q0 61 62 62h260q41 0 51 -18.5t10 -53.5v-197 q0 -41 -12 -58t-61 -17h-236q-41 0 -57.5 10t-16.5 51zM602 549q0 -84 38 -122t85 -38q84 0 106.5 44t22.5 120v405q0 72 -27.5 114t-100.5 42t-98.5 -44t-25.5 -109v-412zM784 1663v201q0 41 15.5 56.5t58.5 15.5h231q51 0 64.5 -16.5t13.5 -57.5v-213q0 -57 -61 -57h-228 q-66 0 -80 18.5t-14 52.5z" />
<glyph unicode="&#xd7;" d="M16 147v1156h1457v-1156h-1457zM176 373.5q2 -4.5 10 -4.5h72q14 0 18.5 5t8.5 21l45 154h243l48 -154q4 -16 6 -21t16 -5h80q14 0 21.5 4t-1.5 28l-204 670q-8 33 -37 33h-82q-25 0 -37 -33l-203 -670q-6 -23 -4 -27.5zM352 625l101 336l96 -336h-197zM727 1071 l207 -678q4 -12 9 -18t22 -6h92q16 0 20 5t8 17l211 690q8 23 -22 23h-64q-10 0 -13 -5t-9 -22l-168 -565l-170 565q-4 16 -7 21.5t-18 5.5h-77q-12 0 -20.5 -5t-0.5 -28z" />
<glyph unicode="&#xd8;" horiz-adv-x="1472" d="M-8 141.5q4 14.5 41 55.5l94 102q-14 55 -14 131v578q0 274 145 394t432 120t455 -107l33 33q14 14 30 35q27 31 45.5 38t59.5 -22l98 -69q29 -20 21.5 -38t-23.5 -34l-104 -115q55 -108 55 -256v-522q0 -224 -125 -351q-130 -131 -401 -139q-64 -2 -108 -2t-103.5 2 t-122.5 13q-148 24 -244 98l-59 -66q-25 -29 -50.5 -29.5t-35.5 9.5l-105 109q-18 18 -14 32.5zM602 819l221 242q-33 53 -96 53q-125 0 -125 -160v-135zM618 485q16 -47 45 -71.5t67 -24.5t62.5 16.5t39.5 44.5q22 42 22 144v151z" />
<glyph unicode="&#xd9;" horiz-adv-x="1478" d="M117 430v1016q0 29 15 41t58 12h312q55 0 79.5 -13t24.5 -54v-842q0 -98 38 -149.5t83 -51.5t69.5 16.5t39.5 44.5q22 42 22 144v852q0 29 15.5 41t58.5 12h325q53 0 80 -13t27 -54v-967q0 -224 -125 -351q-130 -131 -401 -139q-64 -2 -110 -2t-109.5 2t-132 15.5 t-135 42t-119.5 79.5q-115 111 -115 318zM373.5 1927.5q7.5 22.5 58.5 22.5h266q27 0 43 -14.5t33 -38.5l166 -238q20 -29 12 -48t-49 -19h-152q-33 0 -55.5 19.5t-38.5 33.5l-262 233q-29 27 -21.5 49.5z" />
<glyph unicode="&#xda;" horiz-adv-x="1478" d="M117 430v1016q0 29 15 41t58 12h312q55 0 79.5 -13t24.5 -54v-842q0 -98 38 -149.5t83 -51.5t69.5 16.5t39.5 44.5q22 42 22 144v852q0 29 15.5 41t58.5 12h325q53 0 80 -13t27 -54v-967q0 -224 -125 -351q-130 -131 -401 -139q-64 -2 -110 -2t-109.5 2t-132 15.5 t-135 42t-119.5 79.5q-115 111 -115 318zM514 1611.5q-8 19.5 13 47.5l166 238q34 53 75 53h267q51 0 58 -22.5t-22 -49.5l-262 -233q-16 -14 -38.5 -33.5t-55.5 -19.5h-152q-41 0 -49 19.5z" />
<glyph unicode="&#xdb;" horiz-adv-x="1478" d="M117 430v1016q0 29 15 41t58 12h312q55 0 79.5 -13t24.5 -54v-842q0 -98 38 -149.5t83 -51.5t69.5 16.5t39.5 44.5q22 42 22 144v852q0 29 15.5 41t58.5 12h325q53 0 80 -13t27 -54v-967q0 -224 -125 -351q-130 -131 -401 -139q-64 -2 -110 -2t-109.5 2t-132 15.5 t-135 42t-119.5 79.5q-115 111 -115 318zM378 1616q-8 25 16 47l200 234q10 12 28.5 32.5t35.5 20.5h135q27 0 45 -19.5t31 -33.5l200 -234q20 -23 16.5 -47t-53.5 -24h-163q-27 0 -38.5 6t-27.5 28l-72 95l-73 -95q-27 -34 -64 -34h-164q-45 0 -52 24z" />
<glyph unicode="&#xdc;" horiz-adv-x="1478" d="M117 430v1016q0 29 15 41t58 12h312q55 0 79.5 -13t24.5 -54v-842q0 -98 38 -149.5t83 -51.5t69.5 16.5t39.5 44.5q22 42 22 144v852q0 29 15.5 41t58.5 12h325q53 0 80 -13t27 -54v-967q0 -224 -125 -351q-130 -131 -401 -139q-64 -2 -110 -2t-109.5 2t-132 15.5 t-135 42t-119.5 79.5q-115 111 -115 318zM297 1653v221q0 61 62 62h260q41 0 51 -18.5t10 -53.5v-197q0 -41 -12 -58t-61 -17h-236q-41 0 -57.5 10t-16.5 51zM795 1663v201q0 41 15.5 56.5t58.5 15.5h231q51 0 64.5 -16.5t13.5 -57.5v-213q0 -57 -61 -57h-228 q-66 0 -80 18.5t-14 52.5z" />
<glyph unicode="&#xdd;" horiz-adv-x="1531" d="M8 1490q13 9 72 9h379q49 0 62 -10q16 -11 42 -55l273 -437q23 47 63.5 113t65.5 107l131 217q26 44 37 51q18 14 67 14h246q58 0 69 -7t9.5 -22.5t-77 -143.5t-150 -255t-116.5 -200.5t-76 -130t-53 -91.5l-20 -35v-546q0 -41 -24.5 -54.5t-79.5 -13.5h-326 q-43 0 -58.5 12.5t-15.5 40.5v565l-510 809q-29 49 -10 63zM637 1611.5q-8 19.5 13 47.5l166 238q34 53 75 53h267q51 0 58 -22.5t-22 -49.5l-262 -233q-16 -14 -38.5 -33.5t-55.5 -19.5h-152q-41 0 -49 19.5z" />
<glyph unicode="&#xde;" horiz-adv-x="1509" d="M129 68v1366q0 41 17.5 53t70.5 12h354q37 0 49.5 -18.5t12.5 -53.5v-102q0 -25 33 -25h163q326 0 469 -134q144 -133 144 -427q0 -267 -182 -389q-175 -117 -535 -117h-43q-29 0 -39 -11t-10 -44v-125q0 -29 -15.5 -41t-58.5 -12h-326q-55 0 -79.5 13.5t-24.5 54.5z M641 662q0 -23 8 -31t33 -8h113q89 0 125 83q14 31 14 91.5t-44 97.5t-104 37h-108q-37 0 -37 -37v-233z" />
<glyph unicode="&#xdf;" horiz-adv-x="1785" d="M59 852v133q0 39 11.5 61.5t50.5 22.5h65v94q0 237 298 325q116 34 267.5 34t254 -21.5t176.5 -65.5q157 -94 157 -272q0 -68 -23.5 -129t-34.5 -94t-11 -73q0 -73 100 -122q51 -25 114.5 -57.5t119 -80.5t92.5 -115.5t37 -174t-48.5 -177t-120.5 -108.5 q-114 -61 -295.5 -61t-291 24.5t-143.5 41.5q-11 4 -16 59.5t-4 93t5 68.5t12.5 50.5t24.5 15.5t33.5 -10.5t44.5 -12.5q63 -14 151.5 -14t125 11t36.5 39t-31.5 44t-79.5 36.5t-107.5 49.5t-110.5 72q-121 101 -121 258q0 56 36.5 130t54 109t17.5 66q0 94 -108 94 q-47 0 -79 -26.5t-32 -88.5v-964q0 -43 -18.5 -80t-61.5 -37h-295q-39 0 -69.5 23.5t-30.5 62.5v686h-76q-43 0 -59.5 18.5t-16.5 61.5z" />
<glyph unicode="&#xe0;" horiz-adv-x="1308" d="M72 539q0 472 223 571q70 31 147 31t124.5 -9.5t82.5 -27.5q57 -30 113 -98v14q0 31 15.5 56.5t45.5 25.5h310q51 0 64 -18.5t13 -53.5v-919q0 -55 -7 -73q-15 -38 -66 -38h-275q-41 0 -70.5 10t-29.5 51v50q-119 -140 -356 -140q-143 0 -233 131q-101 149 -101 437z M328.5 1558.5q7.5 22.5 58.5 22.5h266q27 0 43 -14.5t33 -38.5l166 -238q20 -29 12 -48t-49 -19h-152q-33 0 -55.5 19.5t-38.5 33.5l-262 233q-29 27 -21.5 49.5zM555 418q0 -158 84 -158q69 0 73 110q1 27 1 48v295q0 64 -9 87q-21 50 -73 50q-71 0 -75 -92q-1 -25 -1 -45 v-295z" />
<glyph unicode="&#xe1;" horiz-adv-x="1308" d="M72 539q0 472 223 571q70 31 147 31t124.5 -9.5t82.5 -27.5q57 -30 113 -98v14q0 31 15.5 56.5t45.5 25.5h310q51 0 64 -18.5t13 -53.5v-919q0 -55 -7 -73q-15 -38 -66 -38h-275q-41 0 -70.5 10t-29.5 51v50q-119 -140 -356 -140q-143 0 -233 131q-101 149 -101 437z M473 1242.5q-8 19.5 13 47.5l166 238q34 53 75 53h267q51 0 58 -22.5t-22 -49.5l-262 -233q-16 -14 -38.5 -33.5t-55.5 -19.5h-152q-41 0 -49 19.5zM555 418q0 -158 84 -158q69 0 73 110q1 27 1 48v295q0 64 -9 87q-21 50 -73 50q-71 0 -75 -92q-1 -25 -1 -45v-295z" />
<glyph unicode="&#xe2;" horiz-adv-x="1308" d="M72 539q0 472 223 571q70 31 147 31t124.5 -9.5t82.5 -27.5q57 -30 113 -98v14q0 31 15.5 56.5t45.5 25.5h310q51 0 64 -18.5t13 -53.5v-919q0 -55 -7 -73q-15 -38 -66 -38h-275q-41 0 -70.5 10t-29.5 51v50q-119 -140 -356 -140q-143 0 -233 131q-101 149 -101 437z M341 1247q-8 25 16 47l200 234q10 12 28.5 32.5t35.5 20.5h135q27 0 45 -19.5t31 -33.5l200 -234q20 -23 16.5 -47t-53.5 -24h-163q-27 0 -38.5 6t-27.5 28l-72 95l-73 -95q-27 -34 -64 -34h-164q-45 0 -52 24zM555 418q0 -158 84 -158q69 0 73 110q1 27 1 48v295 q0 64 -9 87q-21 50 -73 50q-71 0 -75 -92q-1 -25 -1 -45v-295z" />
<glyph unicode="&#xe3;" horiz-adv-x="1308" d="M72 539q0 472 223 571q70 31 147 31t124.5 -9.5t82.5 -27.5q57 -30 113 -98v14q0 31 15.5 56.5t45.5 25.5h310q51 0 64 -18.5t13 -53.5v-919q0 -55 -7 -73q-15 -38 -66 -38h-275q-41 0 -70.5 10t-29.5 51v50q-119 -140 -356 -140q-143 0 -233 131q-101 149 -101 437z M262 1305q12 93 92 184q81 94 175 94q56 0 117 -30.5t89.5 -44t58.5 -13.5q50 0 91 74q10 20 35 14l147 -41q18 -4 22.5 -13.5t-3.5 -41t-36 -79.5t-66 -88q-85 -89 -187 -89q-33 0 -62.5 14.5t-58.5 30.5t-57.5 30.5t-58.5 14.5t-59.5 -24.5t-39.5 -53.5q-6 -25 -37 -12 l-139 41q-31 6 -23 33zM555 418q0 -158 84 -158q69 0 73 110q1 27 1 48v295q0 64 -9 87q-21 50 -73 50q-71 0 -75 -92q-1 -25 -1 -45v-295z" />
<glyph unicode="&#xe4;" horiz-adv-x="1308" d="M72 539q0 472 223 571q70 31 147 31t124.5 -9.5t82.5 -27.5q57 -30 113 -98v14q0 31 15.5 56.5t45.5 25.5h310q51 0 64 -18.5t13 -53.5v-919q0 -55 -7 -73q-15 -38 -66 -38h-275q-41 0 -70.5 10t-29.5 51v50q-119 -140 -356 -140q-143 0 -233 131q-101 149 -101 437z M245 1284v221q0 61 62 62h260q41 0 51 -18.5t10 -53.5v-197q0 -41 -12 -58t-61 -17h-236q-41 0 -57.5 10t-16.5 51zM555 418q0 -158 84 -158q69 0 73 110q1 27 1 48v295q0 64 -9 87q-21 50 -73 50q-71 0 -75 -92q-1 -25 -1 -45v-295zM743 1294v201q0 41 15.5 56.5t58.5 15.5 h231q51 0 64.5 -16.5t13.5 -57.5v-213q0 -57 -61 -57h-228q-66 0 -80 18.5t-14 52.5z" />
<glyph unicode="&#xe5;" horiz-adv-x="1308" d="M72 539q0 472 223 571q70 31 147 31t124.5 -9.5t82.5 -27.5q57 -30 113 -98v14q0 31 15.5 56.5t45.5 25.5h310q51 0 64 -18.5t13 -53.5v-919q0 -55 -7 -73q-15 -38 -66 -38h-275q-41 0 -70.5 10t-29.5 51v50q-119 -140 -356 -140q-143 0 -233 131q-101 149 -101 437z M379 1450q0 118 90 206q87 85 209 85q120 0 209 -85q90 -88 90 -206q0 -116 -90 -206q-87 -85 -209 -85q-120 0 -209 85q-92 90 -90 206zM555 418q0 -158 84 -158q69 0 73 110q1 27 1 48v295q0 64 -9 87q-21 50 -73 50q-71 0 -75 -92q-1 -25 -1 -45v-295zM571 1450 q0 -45 31 -80t76 -35t76 35q30 35 30 80t-30 80q-31 35 -76 35t-76 -35t-31 -80z" />
<glyph unicode="&#xe6;" horiz-adv-x="1902" d="M72 539q0 469 216 571q66 31 174 31q214 0 300 -135v14q0 31 15.5 56.5t45.5 25.5h197q107 39 256 39t252.5 -33t167.5 -88q127 -108 127 -289v-188q0 -66 -15 -81q-28 -28 -114 -28h-568q0 -51 71 -94t200 -43q155 0 248.5 11t105.5 11q61 4 61 -45v-194 q0 -41 -14 -62.5t-39.5 -25.5t-74 -8t-110.5 -8q-166 -9 -235 -9q-377 0 -516 195q-97 -102 -155 -133q-108 -58 -262 -58q-143 0 -233 131q-101 149 -101 437zM555 418q0 -158 84 -158q69 0 73 110q1 27 1 48v295q0 64 -9 87q-21 50 -73 50q-71 0 -75 -92q-1 -25 -1 -45 v-295zM1163 763q0 -32 2 -48.5t25 -16.5h149q16 0 19.5 14.5t3.5 37.5q0 120 -94 120q-61 0 -88 -46q-17 -29 -17 -61z" />
<glyph unicode="&#xe7;" horiz-adv-x="1171" d="M72 539q0 333 134 469q131 133 449 133q164 0 270.5 -43t172.5 -146q18 -29 -62 -96q-67 -56 -134 -89q-122 -62 -126 -40q-14 47 -38.5 85t-86.5 38q-84 0 -84 -137v-295q0 -158 92 -158q47 0 81 52q18 29 36 102q8 34 105 20q93 -14 153 -41.5t83.5 -48.5t19.5 -39 q-79 -327 -461 -334v-55q76 0 124 -43t48 -109.5t-22.5 -103.5t-59.5 -60q-73 -44 -175 -44q-218 0 -259 135q-4 10 12 22.5t38 20.5q57 21 64 0q6 -25 40 -43.5t68 -18.5q91 0 91 72q0 41 -20.5 51t-46 10t-38.5 -8t-18.5 -9t-5.5 17v172q-243 24 -345 157q-99 131 -99 405 z" />
<glyph unicode="&#xe8;" horiz-adv-x="1271" d="M72 543q0 312 134 455q136 143 449 143q274 0 415 -121q126 -107 126 -289v-188q0 -66 -16 -81q-27 -28 -113 -28h-567q0 -51 70.5 -94t199.5 -43q155 0 248.5 11t105.5 11q62 4 62 -45v-194q0 -41 -14.5 -62.5t-40 -25.5t-73.5 -8t-110 -8q-166 -9 -235 -9 q-358 0 -515 173q-126 140 -126 403zM312.5 1558.5q7.5 22.5 58.5 22.5h266q27 0 43 -14.5t33 -38.5l166 -238q20 -29 12 -48t-49 -19h-152q-33 0 -55.5 19.5t-38.5 33.5l-262 233q-29 27 -21.5 49.5zM537 762.5q0 -31.5 2 -48t24 -16.5h150q16 0 19 14.5t3 37.5 q0 120 -94 120q-61 0 -87 -46q-17 -30 -17 -61.5z" />
<glyph unicode="&#xe9;" horiz-adv-x="1271" d="M72 543q0 312 134 455q136 143 449 143q274 0 415 -121q126 -107 126 -289v-188q0 -66 -16 -81q-27 -28 -113 -28h-567q0 -51 70.5 -94t199.5 -43q155 0 248.5 11t105.5 11q62 4 62 -45v-194q0 -41 -14.5 -62.5t-40 -25.5t-73.5 -8t-110 -8q-166 -9 -235 -9 q-358 0 -515 173q-126 140 -126 403zM452 1242.5q-8 19.5 13 47.5l166 238q34 53 75 53h267q51 0 58 -22.5t-22 -49.5l-262 -233q-16 -14 -38.5 -33.5t-55.5 -19.5h-152q-41 0 -49 19.5zM537 762.5q0 -31.5 2 -48t24 -16.5h150q16 0 19 14.5t3 37.5q0 120 -94 120 q-61 0 -87 -46q-17 -30 -17 -61.5z" />
<glyph unicode="&#xea;" horiz-adv-x="1271" d="M72 543q0 312 134 455q136 143 449 143q274 0 415 -121q126 -107 126 -289v-188q0 -66 -16 -81q-27 -28 -113 -28h-567q0 -51 70.5 -94t199.5 -43q155 0 248.5 11t105.5 11q62 4 62 -45v-194q0 -41 -14.5 -62.5t-40 -25.5t-73.5 -8t-110 -8q-166 -9 -235 -9 q-358 0 -515 173q-126 140 -126 403zM304 1247q-8 25 16 47l200 234q10 12 28.5 32.5t35.5 20.5h135q27 0 45 -19.5t31 -33.5l200 -234q20 -23 16.5 -47t-53.5 -24h-163q-27 0 -38.5 6t-27.5 28l-72 95l-73 -95q-27 -34 -64 -34h-164q-45 0 -52 24zM537 762.5q0 -31.5 2 -48 t24 -16.5h150q16 0 19 14.5t3 37.5q0 120 -94 120q-61 0 -87 -46q-17 -30 -17 -61.5z" />
<glyph unicode="&#xeb;" horiz-adv-x="1271" d="M72 543q0 312 134 455q136 143 449 143q274 0 415 -121q126 -107 126 -289v-188q0 -66 -16 -81q-27 -28 -113 -28h-567q0 -51 70.5 -94t199.5 -43q155 0 248.5 11t105.5 11q62 4 62 -45v-194q0 -41 -14.5 -62.5t-40 -25.5t-73.5 -8t-110 -8q-166 -9 -235 -9 q-358 0 -515 173q-126 140 -126 403zM204 1284v221q0 61 62 62h260q41 0 51 -18.5t10 -53.5v-197q0 -41 -12 -58t-61 -17h-236q-41 0 -57.5 10t-16.5 51zM537 762.5q0 -31.5 2 -48t24 -16.5h150q16 0 19 14.5t3 37.5q0 120 -94 120q-61 0 -87 -46q-17 -30 -17 -61.5z M702 1294v201q0 41 15.5 56.5t58.5 15.5h231q51 0 64.5 -16.5t13.5 -57.5v-213q0 -57 -61 -57h-228q-66 0 -80 18.5t-14 52.5z" />
<glyph unicode="&#xec;" horiz-adv-x="645" d="M-74.5 1558.5q7.5 22.5 58.5 22.5h266q27 0 43 -14.5t33 -38.5l166 -238q20 -29 12 -48t-49 -19h-152q-33 0 -55.5 19.5t-38.5 33.5l-262 233q-29 27 -21.5 49.5zM98 94v936q0 70 62 72h293q66 0 79.5 -18.5t14.5 -53.5v-936q0 -51 -7 -65q-14 -29 -67 -29h-291 q-72 0 -82 56q-2 17 -2 38z" />
<glyph unicode="&#xed;" horiz-adv-x="645" d="M98 94v936q0 70 62 72h293q66 0 79.5 -18.5t14.5 -53.5v-936q0 -51 -7 -65q-14 -29 -67 -29h-291q-72 0 -82 56q-2 17 -2 38zM147 1242.5q-8 19.5 13 47.5l166 238q34 53 75 53h267q51 0 58 -22.5t-22 -49.5l-262 -233q-16 -14 -38.5 -33.5t-55.5 -19.5h-152 q-41 0 -49 19.5z" />
<glyph unicode="&#xee;" horiz-adv-x="645" d="M-26 1247q-8 25 16 47l200 234q10 12 28.5 32.5t35.5 20.5h135q27 0 45 -19.5t31 -33.5l200 -234q20 -23 16.5 -47t-53.5 -24h-163q-27 0 -38.5 6t-27.5 28l-72 95l-73 -95q-27 -34 -64 -34h-164q-45 0 -52 24zM98 94v936q0 70 62 72h293q66 0 79.5 -18.5t14.5 -53.5 v-936q0 -51 -7 -65q-14 -29 -67 -29h-291q-72 0 -82 56q-2 17 -2 38z" />
<glyph unicode="&#xef;" horiz-adv-x="645" d="M-115 1284v221q0 61 62 62h260q41 0 51 -18.5t10 -53.5v-197q0 -41 -12 -58t-61 -17h-236q-41 0 -57.5 10t-16.5 51zM98 94v936q0 70 62 72h293q66 0 79.5 -18.5t14.5 -53.5v-936q0 -51 -7 -65q-14 -29 -67 -29h-291q-72 0 -82 56q-2 17 -2 38zM383 1294v201 q0 41 15.5 56.5t58.5 15.5h231q51 0 64.5 -16.5t13.5 -57.5v-213q0 -57 -61 -57h-228q-66 0 -80 18.5t-14 52.5z" />
<glyph unicode="&#xf0;" horiz-adv-x="1255" d="M72 508q0 241 168 380q159 130 415 130q-16 32 -47 74l-24 -23q-23 -23 -52.5 -30t-50.5 16l-71 80q-29 31 -26 47t30 41l41 37q-23 23 -39 30q-23 14 -21 38t25 46l207 207q47 47 70.5 43t39.5 -20q29 -30 45 -48q2 0 17.5 15.5t30 28t30.5 18.5q35 13 72 -21l63 -59 q31 -29 29 -52.5t-49 -64.5l-43 -39q252 -351 252 -843q0 -402 -282 -524q-101 -44 -257 -44t-266.5 41t-178.5 113q-128 134 -128 383zM563 418q0 -158 84 -158q69 0 73 110q1 27 1 48v172q0 64 -9 87q-21 50 -73 50q-71 0 -75 -93q-1 -24 -1 -44v-172z" />
<glyph unicode="&#xf1;" horiz-adv-x="1263" d="M98 96v924q0 31 15.5 56.5t46.5 25.5h293q45 0 62 -12q34 -23 34 -84q59 55 129 87.5t147.5 32.5t135 -18t102.5 -59q102 -93 102 -275v-657q0 -43 -18.5 -80t-61.5 -37h-272q-39 0 -69.5 23.5t-30.5 62.5v530q0 103 -80 103q-49 0 -67.5 -32t-18.5 -66v-510 q0 -55 -7 -73q-16 -38 -67 -38h-274q-101 0 -101 96zM221 1305q12 93 92 184q81 94 175 94q56 0 117 -30.5t89.5 -44t58.5 -13.5q50 0 91 74q10 20 35 14l147 -41q18 -4 22.5 -13.5t-3.5 -41t-36 -79.5t-66 -88q-85 -89 -187 -89q-33 0 -62.5 14.5t-58.5 30.5t-57.5 30.5 t-58.5 14.5t-59.5 -24.5t-39.5 -53.5q-6 -25 -37 -12l-139 41q-31 6 -23 33z" />
<glyph unicode="&#xf2;" horiz-adv-x="1275" d="M72 539q0 333 134 469q131 133 449 133q284 0 414 -135q135 -139 135 -454q0 -154 -30.5 -260t-97.5 -178q-133 -143 -425 -143q-318 0 -451 131q-128 126 -128 437zM275.5 1558.5q7.5 22.5 58.5 22.5h266q27 0 43 -14.5t33 -38.5l166 -238q20 -29 12 -48t-49 -19h-152 q-33 0 -55.5 19.5t-38.5 33.5l-262 233q-29 27 -21.5 49.5zM555 389q0 -55 16.5 -92t67.5 -37t66.5 40t15.5 91v322q0 93 -38 123q-17 14 -47 14t-46.5 -13.5t-23.5 -34.5q-11 -32 -11 -89v-324z" />
<glyph unicode="&#xf3;" horiz-adv-x="1275" d="M72 539q0 333 134 469q131 133 449 133q284 0 414 -135q135 -139 135 -454q0 -154 -30.5 -260t-97.5 -178q-133 -143 -425 -143q-318 0 -451 131q-128 126 -128 437zM432 1242.5q-8 19.5 13 47.5l166 238q34 53 75 53h267q51 0 58 -22.5t-22 -49.5l-262 -233 q-16 -14 -38.5 -33.5t-55.5 -19.5h-152q-41 0 -49 19.5zM555 389q0 -55 16.5 -92t67.5 -37t66.5 40t15.5 91v322q0 93 -38 123q-17 14 -47 14t-46.5 -13.5t-23.5 -34.5q-11 -32 -11 -89v-324z" />
<glyph unicode="&#xf4;" horiz-adv-x="1275" d="M72 539q0 333 134 469q131 133 449 133q284 0 414 -135q135 -139 135 -454q0 -154 -30.5 -260t-97.5 -178q-133 -143 -425 -143q-318 0 -451 131q-128 126 -128 437zM292 1247q-8 25 16 47l200 234q10 12 28.5 32.5t35.5 20.5h135q27 0 45 -19.5t31 -33.5l200 -234 q20 -23 16.5 -47t-53.5 -24h-163q-27 0 -38.5 6t-27.5 28l-72 95l-73 -95q-27 -34 -64 -34h-164q-45 0 -52 24zM555 389q0 -55 16.5 -92t67.5 -37t66.5 40t15.5 91v322q0 93 -38 123q-17 14 -47 14t-46.5 -13.5t-23.5 -34.5q-11 -32 -11 -89v-324z" />
<glyph unicode="&#xf5;" horiz-adv-x="1275" d="M72 539q0 333 134 469q131 133 449 133q284 0 414 -135q135 -139 135 -454q0 -154 -30.5 -260t-97.5 -178q-133 -143 -425 -143q-318 0 -451 131q-128 126 -128 437zM221 1305q12 93 92 184q81 94 175 94q56 0 117 -30.5t89.5 -44t58.5 -13.5q50 0 91 74q10 20 35 14 l147 -41q18 -4 22.5 -13.5t-3.5 -41t-36 -79.5t-66 -88q-85 -89 -187 -89q-33 0 -62.5 14.5t-58.5 30.5t-57.5 30.5t-58.5 14.5t-59.5 -24.5t-39.5 -53.5q-6 -25 -37 -12l-139 41q-31 6 -23 33zM555 389q0 -55 16.5 -92t67.5 -37t66.5 40t15.5 91v322q0 93 -38 123 q-17 14 -47 14t-46.5 -13.5t-23.5 -34.5q-11 -32 -11 -89v-324z" />
<glyph unicode="&#xf6;" horiz-adv-x="1275" d="M72 539q0 333 134 469q131 133 449 133q284 0 414 -135q135 -139 135 -454q0 -154 -30.5 -260t-97.5 -178q-133 -143 -425 -143q-318 0 -451 131q-128 126 -128 437zM202 1284v221q0 61 62 62h260q41 0 51 -18.5t10 -53.5v-197q0 -41 -12 -58t-61 -17h-236 q-41 0 -57.5 10t-16.5 51zM555 389q0 -55 16.5 -92t67.5 -37t66.5 40t15.5 91v322q0 93 -38 123q-17 14 -47 14t-46.5 -13.5t-23.5 -34.5q-11 -32 -11 -89v-324zM700 1294v201q0 41 15.5 56.5t58.5 15.5h231q51 0 64.5 -16.5t13.5 -57.5v-213q0 -57 -61 -57h-228 q-66 0 -80 18.5t-14 52.5z" />
<glyph unicode="&#xf7;" d="M16 147v1156h1457v-1156h-1457zM176 373.5q2 -4.5 10 -4.5h72q14 0 18.5 5t8.5 21l45 154h243l48 -154q4 -16 6 -21t16 -5h80q14 0 21.5 4t-1.5 28l-204 670q-8 33 -37 33h-82q-25 0 -37 -33l-203 -670q-6 -23 -4 -27.5zM352 625l101 336l96 -336h-197zM727 1071 l207 -678q4 -12 9 -18t22 -6h92q16 0 20 5t8 17l211 690q8 23 -22 23h-64q-10 0 -13 -5t-9 -22l-168 -565l-170 565q-4 16 -7 21.5t-18 5.5h-77q-12 0 -20.5 -5t-0.5 -28z" />
<glyph unicode="&#xf8;" horiz-adv-x="1275" d="M62 120.5q4 14.5 40 55.5l27 29q-57 123 -57 312.5t32.5 305t101.5 185.5q131 133 449 133q176 0 293 -51l15 14q2 4 16.5 20.5t32.5 23.5t59 -22l98 -69q29 -20 22 -38q-6 -16 -24 -34t-26 -28.5t-19 -20.5q82 -139 82 -411.5t-130.5 -413t-422.5 -140.5q-223 0 -354 62 l-31 -33q-25 -29 -50.5 -30t-35.5 10l-104 108q-18 18 -14 32.5zM555 649l143 170q-20 31 -56 31t-52.5 -13.5t-23.5 -34.5q-11 -32 -11 -89v-64zM561 324q18 -64 73.5 -64t71 40t15.5 91v121z" />
<glyph unicode="&#xf9;" horiz-adv-x="1277" d="M98 326v665q0 43 18.5 77t61.5 34h287q39 0 69.5 -23.5t30.5 -62.5v-533q0 -102 80 -102q49 0 67.5 31.5t18.5 66.5v512q0 55 7 73q15 38 67 38h274q101 0 101 -96v-926q0 -31 -15.5 -56.5t-46.5 -25.5h-293q-71 0 -88 42q-8 19 -8 54q-66 -55 -132.5 -88t-147 -33 t-138 18.5t-104.5 59.5q-109 95 -109 275zM271.5 1558.5q7.5 22.5 58.5 22.5h266q27 0 43 -14.5t33 -38.5l166 -238q20 -29 12 -48t-49 -19h-152q-33 0 -55.5 19.5t-38.5 33.5l-262 233q-29 27 -21.5 49.5z" />
<glyph unicode="&#xfa;" horiz-adv-x="1277" d="M98 326v665q0 43 18.5 77t61.5 34h287q39 0 69.5 -23.5t30.5 -62.5v-533q0 -102 80 -102q49 0 67.5 31.5t18.5 66.5v512q0 55 7 73q15 38 67 38h274q101 0 101 -96v-926q0 -31 -15.5 -56.5t-46.5 -25.5h-293q-71 0 -88 42q-8 19 -8 54q-66 -55 -132.5 -88t-147 -33 t-138 18.5t-104.5 59.5q-109 95 -109 275zM432 1242.5q-8 19.5 13 47.5l166 238q34 53 75 53h267q51 0 58 -22.5t-22 -49.5l-262 -233q-16 -14 -38.5 -33.5t-55.5 -19.5h-152q-41 0 -49 19.5z" />
<glyph unicode="&#xfb;" horiz-adv-x="1277" d="M98 326v665q0 43 18.5 77t61.5 34h287q39 0 69.5 -23.5t30.5 -62.5v-533q0 -102 80 -102q49 0 67.5 31.5t18.5 66.5v512q0 55 7 73q15 38 67 38h274q101 0 101 -96v-926q0 -31 -15.5 -56.5t-46.5 -25.5h-293q-71 0 -88 42q-8 19 -8 54q-66 -55 -132.5 -88t-147 -33 t-138 18.5t-104.5 59.5q-109 95 -109 275zM292 1247q-8 25 16 47l200 234q10 12 28.5 32.5t35.5 20.5h135q27 0 45 -19.5t31 -33.5l200 -234q20 -23 16.5 -47t-53.5 -24h-163q-27 0 -38.5 6t-27.5 28l-72 95l-73 -95q-27 -34 -64 -34h-164q-45 0 -52 24z" />
<glyph unicode="&#xfc;" horiz-adv-x="1277" d="M98 326v665q0 43 18.5 77t61.5 34h287q39 0 69.5 -23.5t30.5 -62.5v-533q0 -102 80 -102q49 0 67.5 31.5t18.5 66.5v512q0 55 7 73q15 38 67 38h274q101 0 101 -96v-926q0 -31 -15.5 -56.5t-46.5 -25.5h-293q-71 0 -88 42q-8 19 -8 54q-66 -55 -132.5 -88t-147 -33 t-138 18.5t-104.5 59.5q-109 95 -109 275zM208 1284v221q0 61 62 62h260q41 0 51 -18.5t10 -53.5v-197q0 -41 -12 -58t-61 -17h-236q-41 0 -57.5 10t-16.5 51zM706 1294v201q0 41 15.5 56.5t58.5 15.5h231q51 0 64.5 -16.5t13.5 -57.5v-213q0 -57 -61 -57h-228 q-66 0 -80 18.5t-14 52.5z" />
<glyph unicode="&#xfd;" horiz-adv-x="1261" d="M18 1030q-29 72 64 72h334q31 0 58.5 -25.5t37.5 -56.5l147 -418l168 418q12 31 39 56.5t58 25.5h252q55 0 67 -18.5t-4 -53.5l-577 -1358q-12 -29 -39 -55.5t-58 -26.5h-231q-55 0 -67.5 18.5t3.5 53.5l154 365zM473 1242.5q-8 19.5 13 47.5l166 238q34 53 75 53h267 q51 0 58 -22.5t-22 -49.5l-262 -233q-16 -14 -38.5 -33.5t-55.5 -19.5h-152q-41 0 -49 19.5z" />
<glyph unicode="&#xfe;" horiz-adv-x="1308" d="M98 -338v1749q0 54 8 72q16 39 66 39h313q41 0 51.5 -11.5t10.5 -42.5v-467q61 66 142 103t214 37q143 0 233 -131q101 -149 101 -437q0 -468 -217 -571q-66 -31 -141 -31q-228 0 -332 135v-434q0 -31 -15.5 -56.5t-46.5 -25.5h-292q-66 0 -80.5 18.5t-14.5 53.5z M596 399q0 -137 82 -137q71 0 75 92q1 25 1 45v295q0 103 -40 142q-18 16 -45.5 16t-42 -16.5t-21.5 -41.5q-9 -31 -9 -100v-295z" />
<glyph unicode="&#xff;" horiz-adv-x="1261" d="M18 1030q-29 72 64 72h334q31 0 58.5 -25.5t37.5 -56.5l147 -418l168 418q12 31 39 56.5t58 25.5h252q55 0 67 -18.5t-4 -53.5l-577 -1358q-12 -29 -39 -55.5t-58 -26.5h-231q-55 0 -67.5 18.5t3.5 53.5l154 365zM211 1284v221q0 61 62 62h260q41 0 51 -18.5t10 -53.5 v-197q0 -41 -12 -58t-61 -17h-236q-41 0 -57.5 10t-16.5 51zM709 1294v201q0 41 15.5 56.5t58.5 15.5h231q51 0 64.5 -16.5t13.5 -57.5v-213q0 -57 -61 -57h-228q-66 0 -80 18.5t-14 52.5z" />
<glyph unicode="&#x152;" horiz-adv-x="1978" d="M113 430v578q0 274 145 394t436 120q130 0 256 -23h844q37 0 46 -16.5t9 -38.5v-254q0 -37 -25.5 -46t-68.5 -9h-387q-53 0 -53 -33v-96q0 -25 14 -36.5t31 -11.5h350q43 0 55.5 -17t10.5 -38l-19 -250q-3 -45 -43 -61q-16 -6 -32 -6h-306q-25 0 -41 -12.5t-16 -34.5 v-113q0 -35 25.5 -40t58.5 -5h362q68 0 98.5 -11.5t30.5 -41.5v-269q0 -31 -13 -45t-30 -14h-854q-91 -27 -270 -27q-156 0 -234.5 15.5t-145 44t-119.5 79.5q-115 111 -115 318zM602 590q0 -98 38 -149.5t83 -51.5t69.5 16.5t39.5 44.5q22 42 22 144v354q0 61 -30.5 113.5 t-96.5 52.5q-125 0 -125 -160v-364z" />
<glyph unicode="&#x153;" horiz-adv-x="1912" d="M72 539q0 333 134 469q131 133 449 133q201 0 301 -68q129 68 307 68t282 -33t169 -88q125 -107 125 -289v-188q0 -66 -15 -81q-28 -28 -114 -28h-567q0 -51 70.5 -94t199.5 -43q158 0 250 11t104 11q62 4 62 -45v-194q0 -41 -14.5 -62.5t-40 -25.5t-73.5 -8t-109 -8 q-167 -9 -236 -9q-247 0 -389 80q-102 -76 -290 -76t-298.5 32t-178.5 99q-128 126 -128 437zM563 418q0 -158 84 -158q69 0 73 110q1 27 1 48v295q0 64 -9 87q-21 50 -73 50q-71 0 -75 -92q-1 -25 -1 -45v-295zM1180 762.5q0 -31.5 2 -48t24 -16.5h150q16 0 19 14.5t3 37.5 q0 120 -94 120q-61 0 -87 -46q-17 -30 -17 -61.5z" />
<glyph unicode="&#x178;" horiz-adv-x="1531" d="M8 1490q13 9 72 9h379q49 0 62 -10q16 -11 42 -55l273 -437q23 47 63.5 113t65.5 107l131 217q26 44 37 51q18 14 67 14h246q58 0 69 -7t9.5 -22.5t-77 -143.5t-150 -255t-116.5 -200.5t-76 -130t-53 -91.5l-20 -35v-546q0 -41 -24.5 -54.5t-79.5 -13.5h-326 q-43 0 -58.5 12.5t-15.5 40.5v565l-510 809q-29 49 -10 63zM368 1653v221q0 61 62 62h260q41 0 51 -18.5t10 -53.5v-197q0 -41 -12 -58t-61 -17h-236q-41 0 -57.5 10t-16.5 51zM866 1663v201q0 41 15.5 56.5t58.5 15.5h231q51 0 64.5 -16.5t13.5 -57.5v-213q0 -57 -61 -57 h-228q-66 0 -80 18.5t-14 52.5z" />
<glyph unicode="&#x2c6;" horiz-adv-x="1024" d="M177 1247q-8 25 16 47l200 234q10 12 28.5 32.5t35.5 20.5h135q27 0 45 -19.5t31 -33.5l200 -234q20 -23 16.5 -47t-53.5 -24h-163q-27 0 -38.5 6t-27.5 28l-72 95l-73 -95q-27 -34 -64 -34h-164q-45 0 -52 24z" />
<glyph unicode="&#x2dc;" horiz-adv-x="1024" d="M98 1305q12 93 92 184q81 94 175 94q56 0 117 -30.5t89.5 -44t58.5 -13.5q50 0 91 74q10 20 35 14l147 -41q18 -4 22.5 -13.5t-3.5 -41t-36 -79.5t-66 -88q-85 -89 -187 -89q-33 0 -62.5 14.5t-58.5 30.5t-57.5 30.5t-58.5 14.5t-59.5 -24.5t-39.5 -53.5q-6 -25 -37 -12 l-139 41q-31 6 -23 33z" />
<glyph unicode="&#x2000;" horiz-adv-x="1054" />
<glyph unicode="&#x2001;" horiz-adv-x="2109" />
<glyph unicode="&#x2002;" horiz-adv-x="1054" />
<glyph unicode="&#x2003;" horiz-adv-x="2109" />
<glyph unicode="&#x2004;" horiz-adv-x="703" />
<glyph unicode="&#x2005;" horiz-adv-x="527" />
<glyph unicode="&#x2006;" horiz-adv-x="351" />
<glyph unicode="&#x2007;" horiz-adv-x="351" />
<glyph unicode="&#x2008;" horiz-adv-x="263" />
<glyph unicode="&#x2009;" horiz-adv-x="421" />
<glyph unicode="&#x200a;" horiz-adv-x="117" />
<glyph unicode="&#x2010;" horiz-adv-x="1144" d="M119 569v170q0 66 18.5 80.5t52.5 14.5h736q80 0 100 -30q10 -16 10 -44v-152q0 -59 -17.5 -79.5t-78.5 -20.5h-739q-31 0 -56.5 15.5t-25.5 45.5z" />
<glyph unicode="&#x2011;" horiz-adv-x="1144" d="M119 569v170q0 66 18.5 80.5t52.5 14.5h736q80 0 100 -30q10 -16 10 -44v-152q0 -59 -17.5 -79.5t-78.5 -20.5h-739q-31 0 -56.5 15.5t-25.5 45.5z" />
<glyph unicode="&#x2012;" horiz-adv-x="1144" d="M119 569v170q0 66 18.5 80.5t52.5 14.5h736q80 0 100 -30q10 -16 10 -44v-152q0 -59 -17.5 -79.5t-78.5 -20.5h-739q-31 0 -56.5 15.5t-25.5 45.5z" />
<glyph unicode="&#x2013;" horiz-adv-x="1619" d="M109 569v170q0 66 18 80.5t53 14.5h1221q80 0 100 -30q10 -16 10 -44v-152q0 -59 -17 -79.5t-79 -20.5h-1225q-31 0 -56 15.5t-25 45.5z" />
<glyph unicode="&#x2014;" horiz-adv-x="2418" d="M109 569v170q0 66 18 80.5t53 14.5h2020q80 0 100 -30q10 -16 10 -44v-152q0 -59 -17.5 -79.5t-78.5 -20.5h-2024q-31 0 -56 15.5t-25 45.5z" />
<glyph unicode="&#x2018;" horiz-adv-x="606" d="M45 1036l37 135q20 76 47 122t88 87l238 154q49 33 80.5 10.5t19.5 -106.5l-61 -391q-11 -82 -62 -82h-293q-66 0 -85 18t-9 53z" />
<glyph unicode="&#x2019;" horiz-adv-x="606" d="M53 1049l62 391q11 82 61 82h293q66 0 85 -18.5t9 -53.5l-37 -135q-20 -76 -46.5 -122t-88.5 -87l-237 -154q-49 -33 -81 -10t-20 107z" />
<glyph unicode="&#x201a;" horiz-adv-x="606" d="M47 -131l62 391q11 82 61 82h293q66 0 85 -18.5t9 -53.5l-37 -135q-20 -76 -47 -122t-88 -87l-238 -153q-49 -33 -80.5 -10.5t-19.5 106.5z" />
<glyph unicode="&#x201c;" horiz-adv-x="1175" d="M45 1036l37 135q20 76 47 122t88 87l238 154q49 33 80.5 10.5t19.5 -106.5l-61 -391q-11 -82 -62 -82h-293q-66 0 -85 18t-9 53zM618 1036l37 135q20 76 47 122t89 87l237 154q49 33 81 10.5t19 -106.5l-61 -391q-11 -82 -61 -82h-293q-66 0 -85.5 18t-9.5 53z" />
<glyph unicode="&#x201d;" horiz-adv-x="1175" d="M63 1049l62 391q11 82 61 82h293q66 0 85.5 -18.5t8.5 -53.5l-36 -135q-20 -76 -47 -122t-89 -87l-237 -154q-49 -33 -81 -10t-20 107zM637 1049l61 391q11 82 62 82h293q66 0 85 -18.5t9 -53.5l-37 -135q-20 -76 -47 -122t-88 -87l-238 -154q-49 -33 -80.5 -10 t-19.5 107z" />
<glyph unicode="&#x201e;" horiz-adv-x="1175" d="M37 -131l61 391q11 82 62 82h293q66 0 85 -18.5t9 -53.5l-37 -135q-20 -76 -47 -122t-88 -87l-238 -153q-49 -33 -80.5 -10.5t-19.5 106.5zM610 -131l62 391q11 82 61 82h293q66 0 85 -18.5t9 -53.5l-37 -135q-20 -76 -46.5 -122t-88.5 -87l-237 -153q-49 -33 -81 -10.5 t-20 106.5z" />
<glyph unicode="&#x2022;" horiz-adv-x="921" d="M80 659q0 160 114 272q114 113 271 113q158 0 271 -113q114 -114 114 -272q0 -157 -114 -271t-271 -114q-156 0 -271 114q-114 112 -114 271z" />
<glyph unicode="&#x2026;" horiz-adv-x="1900" d="M96 96v166q0 31 15.5 56.5t46.5 25.5h293q66 0 80 -18.5t14 -53.5v-161q0 -55 -7 -73q-16 -38 -67 -38h-274q-101 0 -101 96zM733 96v166q0 31 15.5 56.5t46.5 25.5h292q66 0 80.5 -18.5t14.5 -53.5v-161q0 -55 -8 -73q-15 -38 -66 -38h-274q-101 0 -101 96zM1362 96v166 q0 31 15.5 56.5t45.5 25.5h293q66 0 80 -18.5t14 -53.5v-161q0 -55 -7 -73q-15 -38 -66 -38h-275q-100 0 -100 96z" />
<glyph unicode="&#x202f;" horiz-adv-x="421" />
<glyph unicode="&#x2039;" horiz-adv-x="714" d="M47 655l297 451q14 23 26.5 31t37.5 -7l217 -110q23 -12 22.5 -27.5t-16.5 -38.5l-213 -299l211 -295q29 -41 -6 -57l-213 -119q-29 -16 -41.5 -5t-30.5 38z" />
<glyph unicode="&#x203a;" horiz-adv-x="714" d="M86 360l213 299l-211 295q-29 41 6 58l213 118q29 16 41 5t31 -37l291 -439l-297 -450q-14 -23 -26.5 -31t-37.5 6l-217 111q-39 20 -6 65z" />
<glyph unicode="&#x205f;" horiz-adv-x="527" />
<glyph unicode="&#x2122;" horiz-adv-x="1593" d="M35 1348v127q0 18 12 21t35 3h530q23 0 35 -3t12 -21v-127q0 -10 -3 -18.5t-25 -8.5h-109q-25 0 -24 -23v-471q0 -37 -52 -36h-167q-31 0 -42.5 6t-11.5 30v471q0 23 -22 23h-140q-23 0 -25.5 8t-2.5 19zM731 827v639q0 20 12.5 26.5t38.5 6.5h166q13 0 23 -16l143 -250 q6 -16 14 -4l136 252q12 18 53 18h158q23 0 26.5 -8t3.5 -25v-649q0 -26 -37 -26h-163q-51 0 -52 36v279q0 4 -6 3t-8 -5l-86 -184q-8 -18 -11 -21.5t-20 -3.5h-10q-23 0 -25 4t-12 25l-76 178q-4 2 -10 2t-6 -4v-283q0 -10 -5 -18t-32 -8h-164q-12 0 -31.5 3t-19.5 33z" />
<glyph unicode="&#xe000;" horiz-adv-x="1105" d="M0 0v1106h1106v-1106h-1106z" />
<glyph unicode="&#xfb01;" horiz-adv-x="1521" d="M59 879v133q0 39 11.5 61.5t50.5 22.5h55q-19 47 -16.5 110.5t22 115.5t62.5 97q98 103 286 103q102 0 172 -16.5t80 -21.5t8 -51.5t-9 -99.5q-18 -139 -38 -139l-55 2q-27 0 -47 -10t-20 -47t57 -37h651q66 0 80 -18.5t14 -53.5v-936q0 -51 -7 -65q-14 -29 -66 -29h-291 q-76 0 -82 56q-2 18 -2 38v705h-311v-682q0 -43 -18.5 -80t-61.5 -37h-273q-39 0 -69.5 23.5t-30.5 62.5v713h-76q-43 0 -59.5 18.5t-16.5 61.5zM975 1292v138q0 47 18.5 58t63.5 11h293q68 0 72 -63q1 -17 1 -33v-117q0 -33 -15 -51t-58 -18h-295q-47 0 -63.5 13t-16.5 62z " />
<glyph unicode="&#xfb02;" horiz-adv-x="1521" d="M59 852v133q0 39 11.5 61.5t50.5 22.5h65q-11 14 -18.5 61.5t-6.5 93.5t20.5 98t62.5 97q98 103 286 103q102 0 172 -16.5t80 -21.5t8 -51.5t-9 -99.5q-18 -139 -38 -139l-55 2q-27 0 -47 -10t-20 -42t17 -50.5t40 -18.5h84q41 0 48 -21.5t7 -64.5v-117q0 -100 -65 -100 h-88v-655q0 -43 -18.5 -80t-61.5 -37h-273q-39 0 -69.5 23.5t-30.5 62.5v686h-76q-43 0 -59.5 18.5t-16.5 61.5zM975 72v1392q0 23 15.5 40.5t45.5 17.5h293q66 0 80 -18.5t14 -53.5v-1356q0 -51 -7 -65q-14 -29 -66 -29h-295q-53 0 -66.5 12.5t-13.5 59.5z" />
</font>
</defs>
</svg>
